Скачать через торрент музыку Твин Пикс Twin Peaks бесплатно без регистрации torrent

Если у вас наблюдаются проблемы со скриншотами, переходом по ссылками, скачиванием торрентов - проблемы в блокировщике рекламы AdBlock. #хорошегоДня!


Статистика раздачи
Размер:  383 MB   |    Зарегистрирован:  2 месяца 6 дней   |    .torrent скачан:  15 раз   |   
Раздают:  1  
   
Загрузка...
 
Автор Сообщение

Galfimbul

avatar Galfimbul


Твин Пикс / Twin Peaks

Название альбома: Twin Peaks (Limited Event Series Soundtrack)
Жанр: Score
Композитор: Angelo Badalamenti
Год выпуска диска: 2017
Издатель (лейбл): Rhino Records
Аудиокодек: FLAC (*.flac)
Тип рипа: tracks+.cue
Битрейт аудио: lossless
Продолжительность: 1:17:12
Источник: скачано с
сайт-источник/ник/другое: RED
Наличие сканов в содержимом раздачи: нет
Треклист:
01. Angelo Badalamenti – Twin Peaks Theme (05:04)
02. Muddy Magnolias – American Woman (David Lynch Remix) (04:13)
03. Angelo Badalamenti – Laura Palmer's Theme (Love Theme From Twin Peaks) (04:49)
04. Angelo Badalamenti – Accident / Farewell Theme (03:13)
05. Angelo Badalamenti – Grady Groove (feat. Grady Tate) (01:40)
06. Johnny Jewel – Windswept (Reprise) (03:53)
07. Angelo Badalamenti – Dark Mood Woods / The Red Room (05:42)
08. Angelo Badalamenti – The Chair (04:31)
09. Angelo Badalamenti – Deer Meadow Shuffle (04:33)
10. Witold Rowicki & Warsaw National Philharmonic Orchestra – Threnody For The Victims Of Hiroshima (with Warsaw National Philharmonic Orchestra) (09:30)
11. David Lynch & Dean Hurley – Slow 30s Room (02:06)
12. Angelo Badalamenti – The Fireman (07:13)
13. Chromatics – Saturday (Instrumental) (03:14)
14. Thought Gang – Headless Chicken (02:44)
15. Angelo Badalamenti – Night (02:44)
16. Angelo Badalamenti – Heartbreaking (04:10)
17. Angelo Badalamenti – Audrey's Dance (05:28)
18. Angelo Badalamenti – Dark Space Low (02:15)
Exact Audio Copy V1.3 from 2. September 2016

EAC extraction logfile from 12. September 2017, 12:05

Various Artists / Twin Peaks (Limited Event Series Soundtrack)

Used drive : ATAPI iHAS124 B Adapter: 1 ID: 0

Read mode : SecureUtilize accurate stream : YesDefeat audio cache : YesMake use of C2 pointers : No

Read offset correction : 6Overread into Lead-In and Lead-Out : NoFill up missing offset samples with silence : YesDelete leading and trailing silent blocks : NoNull samples used in CRC calculations : YesUsed interface : Native Win32 interface for Win NT & 2000Gap handling : Appended to previous track

Used output format : User Defined EncoderSelected bitrate : 128 kBit/sQuality : HighAdd ID3 tag : NoCommand line compressor : C:\Program Files (x86)\Exact Audio Copy\Flac\flac.exeAdditional command line options : -8 -e -V -T "ARTIST=%artist%" -T "TITLE=%title%" -T "ALBUM=%albumtitle%" -T "DATE=%year%" -T "TRACKNUMBER=%tracknr%" -T "GENRE=%genre%" -T "PERFORMER=%albuminterpret%" -T "COMPOSER=%composer%" %haslyrics%--tag-from-file=LYRICS="%lyricsfile%"%haslyrics% -T "ALBUMARTIST=%albumartist%" -T "DISCNUMBER=%cdnumber%" -T "TOTALDISCS=%totalcds%" -T "TOTALTRACKS=%numtracks%" -T "COMMENT=%comment%" %source% -o %dest%

TOC of the extracted CD

Track | Start | Length | Start sector | End sector --------------------------------------------------------- 1 | 0:00.00 | 5:04.54 | 0 | 22853 2 | 5:04.54 | 4:13.64 | 22854 | 41892 3 | 9:18.43 | 4:49.01 | 41893 | 63568 4 | 14:07.44 | 3:13.22 | 63569 | 78065 5 | 17:20.66 | 1:40.26 | 78066 | 85591 6 | 19:01.17 | 3:53.62 | 85592 | 103128 7 | 22:55.04 | 5:42.70 | 103129 | 128848 8 | 28:37.74 | 4:31.09 | 128849 | 149182 9 | 33:09.08 | 4:33.42 | 149183 | 169699 10 | 37:42.50 | 9:30.62 | 169700 | 212511 11 | 47:13.37 | 2:06.32 | 212512 | 221993 12 | 49:19.69 | 7:13.41 | 221994 | 254509 13 | 56:33.35 | 3:14.24 | 254510 | 269083 14 | 59:47.59 | 2:44.71 | 269084 | 281454 15 | 62:32.55 | 2:44.68 | 281455 | 293822 16 | 65:17.48 | 4:10.48 | 293823 | 312620 17 | 69:28.21 | 5:28.02 | 312621 | 337222 18 | 74:56.23 | 2:15.52 | 337223 | 347399

Track 1

Filename D:\RIPS\VA - Twin Peaks (Limited Event Series Soundtrack) (2017) [FLAC]\01 - Angelo Badalamenti - Twin Peaks Theme.wav

Pre-gap length 0:00:02.00

Peak level 98.9 % Extraction speed 1.4 X Track quality 99.9 % Test CRC 23FF0421 Copy CRC 23FF0421 Track not present in AccurateRip database Copy OK

Track 2

Filename D:\RIPS\VA - Twin Peaks (Limited Event Series Soundtrack) (2017) [FLAC]\02 - Muddy Magnolias - American Woman (David Lynch Remix).wav

Peak level 98.9 % Extraction speed 1.1 X Track quality 99.8 % Test CRC CAE54FB3 Copy CRC CAE54FB3 Track not present in AccurateRip database Copy OK

Track 3

Filename D:\RIPS\VA - Twin Peaks (Limited Event Series Soundtrack) (2017) [FLAC]\03 - Angelo Badalamenti - Laura Palmer's Theme (Love Theme from Twin Peaks).wav

Peak level 98.8 % Extraction speed 2.0 X Track quality 99.9 % Test CRC 23F30318 Copy CRC 23F30318 Track not present in AccurateRip database Copy OK

Track 4

Filename D:\RIPS\VA - Twin Peaks (Limited Event Series Soundtrack) (2017) [FLAC]\04 - Angelo Badalamenti - Accident , Farewell Theme.wav

Peak level 95.0 % Extraction speed 2.6 X Track quality 100.0 % Test CRC EE22C6E8 Copy CRC EE22C6E8 Track not present in AccurateRip database Copy OK

Track 5

Filename D:\RIPS\VA - Twin Peaks (Limited Event Series Soundtrack) (2017) [FLAC]\05 - Angelo Badalamenti - Grady Groove (feat. Grady Tate).wav

Peak level 98.9 % Extraction speed 1.4 X Track quality 99.8 % Test CRC 6E381552 Copy CRC 6E381552 Track not present in AccurateRip database Copy OK

Track 6

Filename D:\RIPS\VA - Twin Peaks (Limited Event Series Soundtrack) (2017) [FLAC]\06 - Johnny Jewel - Windswept (Reprise).wav

Peak level 98.8 % Extraction speed 1.7 X Track quality 99.9 % Test CRC DAADC031 Copy CRC DAADC031 Track not present in AccurateRip database Copy OK

Track 7

Filename D:\RIPS\VA - Twin Peaks (Limited Event Series Soundtrack) (2017) [FLAC]\07 - Angelo Badalamenti - Dark Mood Woods , The Red Room.wav

Peak level 98.9 % Extraction speed 2.6 X Track quality 99.9 % Test CRC 7A46AC5D Copy CRC 7A46AC5D Track not present in AccurateRip database Copy OK

Track 8

Filename D:\RIPS\VA - Twin Peaks (Limited Event Series Soundtrack) (2017) [FLAC]\08 - Angelo Badalamenti - The Chair.wav

Peak level 98.8 % Extraction speed 1.7 X Track quality 99.8 % Test CRC 411B12DC Copy CRC 411B12DC Track not present in AccurateRip database Copy OK

Track 9

Filename D:\RIPS\VA - Twin Peaks (Limited Event Series Soundtrack) (2017) [FLAC]\09 - Angelo Badalamenti - Deer Meadow Shuffle.wav

Peak level 98.9 % Extraction speed 2.6 X Track quality 99.9 % Test CRC 823C6B78 Copy CRC 823C6B78 Track not present in AccurateRip database Copy OK

Track 10

Filename D:\RIPS\VA - Twin Peaks (Limited Event Series Soundtrack) (2017) [FLAC]\10 - Warsaw National Philharmonic Orchestra,Witold Rowicki - Threnody to the Victims of Hiroshima.wav

Peak level 99.1 % Extraction speed 2.5 X Track quality 99.9 % Test CRC 0F26BCC1 Copy CRC 0F26BCC1 Track not present in AccurateRip database Copy OK

Track 11

Filename D:\RIPS\VA - Twin Peaks (Limited Event Series Soundtrack) (2017) [FLAC]\11 - David Lynch & Dean Hurley - Slow 30's Room.wav

Peak level 98.9 % Extraction speed 1.2 X Track quality 99.7 % Test CRC 1709415A Copy CRC 1709415A Track not present in AccurateRip database Copy OK

Track 12

Filename D:\RIPS\VA - Twin Peaks (Limited Event Series Soundtrack) (2017) [FLAC]\12 - Angelo Badalamenti - The Fireman.wav

Peak level 94.9 % Extraction speed 3.0 X Track quality 99.9 % Test CRC 08F0A132 Copy CRC 08F0A132 Track not present in AccurateRip database Copy OK

Track 13

Filename D:\RIPS\VA - Twin Peaks (Limited Event Series Soundtrack) (2017) [FLAC]\13 - Chromatics - Saturday (Instrumental).wav

Peak level 98.0 % Extraction speed 1.4 X Track quality 99.7 % Test CRC DEE0DD88 Copy CRC DEE0DD88 Track not present in AccurateRip database Copy OK

Track 14

Filename D:\RIPS\VA - Twin Peaks (Limited Event Series Soundtrack) (2017) [FLAC]\14 - Thought Gang - Headless Chicken.wav

Peak level 98.8 % Extraction speed 1.6 X Track quality 99.8 % Test CRC 0584F976 Copy CRC 0584F976 Track not present in AccurateRip database Copy OK

Track 15

Filename D:\RIPS\VA - Twin Peaks (Limited Event Series Soundtrack) (2017) [FLAC]\15 - Angelo Badalamenti - Night.wav

Peak level 98.8 % Extraction speed 2.2 X Track quality 99.8 % Test CRC 572055A4 Copy CRC 572055A4 Track not present in AccurateRip database Copy OK

Track 16

Filename D:\RIPS\VA - Twin Peaks (Limited Event Series Soundtrack) (2017) [FLAC]\16 - Angelo Badalamenti - Heartbreaking.wav

Peak level 98.8 % Extraction speed 2.3 X Track quality 99.8 % Test CRC F7F26882 Copy CRC F7F26882 Track not present in AccurateRip database Copy OK

Track 17

Filename D:\RIPS\VA - Twin Peaks (Limited Event Series Soundtrack) (2017) [FLAC]\17 - Angelo Badalamenti - Audrey's Dance.wav

Peak level 98.9 % Extraction speed 1.8 X Track quality 99.8 % Test CRC FAA23C9F Copy CRC FAA23C9F Track not present in AccurateRip database Copy OK

Track 18

Filename D:\RIPS\VA - Twin Peaks (Limited Event Series Soundtrack) (2017) [FLAC]\18 - Angelo Badalamenti - Dark Space Low.wav

Peak level 98.8 % Extraction speed 0.8 X Track quality 99.5 % Test CRC 7AC3F389 Copy CRC 7AC3F389 Track not present in AccurateRip database Copy OK

None of the tracks are present in the AccurateRip database

No errors occurred

End of status report

---- CUETools DB Plugin V2.1.6

[CTDB TOCID: btHCCsGT60TgvFW3TweEN2U.Vss-] foundSubmit result: btHCCsGT60TgvFW3TweEN2U.Vss- has been confirmedTrack | CTDB Status 1 | (25/25) Accurately ripped 2 | (25/25) Accurately ripped 3 | (25/25) Accurately ripped 4 | (25/25) Accurately ripped 5 | (25/25) Accurately ripped 6 | (25/25) Accurately ripped 7 | (25/25) Accurately ripped 8 | (25/25) Accurately ripped 9 | (25/25) Accurately ripped 10 | (25/25) Accurately ripped 11 | (25/25) Accurately ripped 12 | (25/25) Accurately ripped 13 | (25/25) Accurately ripped 14 | (24/25) Accurately ripped 15 | (24/25) Accurately ripped 16 | (24/25) Accurately ripped 17 | (23/25) Accurately ripped 18 | (24/25) Accurately ripped

==== Log checksum B9A3AAF5F7B23EE30C3AA6F27E9B0CC4E9361EB20697AE983676207D6F56CB41 ====
REM GENRE SoundtrackREM DATE 2017REM DISCID 21121812REM COMMENT "ExactAudioCopy v1.3"CATALOG 0081227933968PERFORMER "Various Artists"TITLE "Twin Peaks (Limited Event Series Soundtrack)"REM COMPOSER ""FILE "01 - Angelo Badalamenti - Twin Peaks Theme.wav" WAVE TRACK 01 AUDIO TITLE "Twin Peaks Theme" PERFORMER "Angelo Badalamenti" REM COMPOSER "" ISRC USRH11701394 INDEX 01 00:00:00FILE "02 - Muddy Magnolias - American Woman (David Lynch Remix).wav" WAVE TRACK 02 AUDIO TITLE "American Woman (David Lynch Remix)" PERFORMER "Muddy Magnolias" REM COMPOSER "" ISRC USRH11701395 INDEX 01 00:00:00FILE "03 - Angelo Badalamenti - Laura Palmer's Theme (Love Theme from Twin Peaks).wav" WAVE TRACK 03 AUDIO TITLE "Laura Palmer's Theme (Love Theme from Twin Peaks)" PERFORMER "Angelo Badalamenti" REM COMPOSER "" ISRC USRH11701396 INDEX 01 00:00:00FILE "04 - Angelo Badalamenti - Accident , Farewell Theme.wav" WAVE TRACK 04 AUDIO TITLE "Accident / Farewell Theme" PERFORMER "Angelo Badalamenti" REM COMPOSER "" ISRC USRH11701397 INDEX 01 00:00:00FILE "05 - Angelo Badalamenti - Grady Groove (feat. Grady Tate).wav" WAVE TRACK 05 AUDIO TITLE "Grady Groove (feat. Grady Tate)" PERFORMER "Angelo Badalamenti" REM COMPOSER "" ISRC USRH11701398 INDEX 01 00:00:00FILE "06 - Johnny Jewel - Windswept (Reprise).wav" WAVE TRACK 06 AUDIO TITLE "Windswept (Reprise)" PERFORMER "Johnny Jewel" REM COMPOSER "" ISRC QMMMF1700050 INDEX 01 00:00:00FILE "07 - Angelo Badalamenti - Dark Mood Woods , The Red Room.wav" WAVE TRACK 07 AUDIO TITLE "Dark Mood Woods / The Red Room" PERFORMER "Angelo Badalamenti" REM COMPOSER "" ISRC USRH11701400 INDEX 01 00:00:00FILE "08 - Angelo Badalamenti - The Chair.wav" WAVE TRACK 08 AUDIO TITLE "The Chair" PERFORMER "Angelo Badalamenti" REM COMPOSER "" ISRC USRH11701401 INDEX 01 00:00:00FILE "09 - Angelo Badalamenti - Deer Meadow Shuffle.wav" WAVE TRACK 09 AUDIO TITLE "Deer Meadow Shuffle" PERFORMER "Angelo Badalamenti" REM COMPOSER "" ISRC USRH11701402 INDEX 01 00:00:00FILE "10 - Warsaw National Philharmonic Orchestra,Witold Rowicki - Threnody to the Victims of Hiroshima.wav" WAVE TRACK 10 AUDIO TITLE "Threnody to the Victims of Hiroshima" PERFORMER "Warsaw National Philharmonic Orchestra/Witold Rowicki" REM COMPOSER "" ISRC NLA506400458 INDEX 01 00:00:00FILE "11 - David Lynch & Dean Hurley - Slow 30's Room.wav" WAVE TRACK 11 AUDIO TITLE "Slow 30's Room" PERFORMER "David Lynch & Dean Hurley" REM COMPOSER "" ISRC USRH11701404 INDEX 01 00:00:00FILE "12 - Angelo Badalamenti - The Fireman.wav" WAVE TRACK 12 AUDIO TITLE "The Fireman" PERFORMER "Angelo Badalamenti" REM COMPOSER "" ISRC USRH11701405 INDEX 01 00:00:00FILE "13 - Chromatics - Saturday (Instrumental).wav" WAVE TRACK 13 AUDIO TITLE "Saturday (Instrumental)" PERFORMER "Chromatics" REM COMPOSER "" ISRC QMMMF1700051 INDEX 01 00:00:00FILE "14 - Thought Gang - Headless Chicken.wav" WAVE TRACK 14 AUDIO TITLE "Headless Chicken" PERFORMER "Thought Gang" REM COMPOSER "" ISRC USRH11701407 INDEX 01 00:00:00FILE "15 - Angelo Badalamenti - Night.wav" WAVE TRACK 15 AUDIO TITLE "Night" PERFORMER "Angelo Badalamenti" REM COMPOSER "" ISRC USRH11701408 INDEX 01 00:00:00FILE "16 - Angelo Badalamenti - Heartbreaking.wav" WAVE TRACK 16 AUDIO TITLE "Heartbreaking" PERFORMER "Angelo Badalamenti" REM COMPOSER "" ISRC USRH11701409 INDEX 01 00:00:00FILE "17 - Angelo Badalamenti - Audrey's Dance.wav" WAVE TRACK 17 AUDIO TITLE "Audrey's Dance" PERFORMER "Angelo Badalamenti" REM COMPOSER "" ISRC USRH11701410 INDEX 01 00:00:00FILE "18 - Angelo Badalamenti - Dark Space Low.wav" WAVE TRACK 18 AUDIO TITLE "Dark Space Low" PERFORMER "Angelo Badalamenti" REM COMPOSER "" ISRC USRH11701411 INDEX 01 00:00:00


Трекер:  [ 15-Сен-2017 11:06 ]

  

Скачать .torrent

Размер .torrent файла 17 KB


Размер: 383 MB
Хэш (hash) релиза: 29670451c7e1b9336d1aa56eb479406e746c2501

Торренты, похожие на Твин Пикс Twin Peaks скачать торрент

Форум Название Автор Размер S L Добавлен
Саундтреки к фильмам и мультфильмам (lossless) ·· (Soundtrack) Твин Пикс / Twin Peaks (Music from the Limited Event Series) (Angelo Badalamenti) - 2017, FLAC (tracks+.cue), lossless Galfimbul 474162486452 MB 0 0 1505132078

15:14

11-Сен-17

Саундтреки к фильмам и мультфильмам (lossless) ·· (Score) Твин Пикс / Twin Peaks (Music from the Limited Event Series)- 2017, FLAC (tracks+.cue), lossless Galfimbul 474327333452 MB 0 0 1505033197

11:46

10-Сен-17

Саундтреки к фильмам и мультфильмам (mp3) ·· (Score) Твин Пикс / Twin Peaks (Limited Event Series Soundtrack) (by Angelo Badalamenti) - 2017, MP3, 320 kbps Galfimbul 188814345180 MB 0 0 1504878370

16:46

8-Сен-17

Саундтреки к фильмам и мультфильмам (mp3) ·· (Soundtrack) Твин Пикс / Twin Peaks (Music from the Limited Event Series) - 2017, MP3, 320 kbps Galfimbul 190053989181 MB 0 0 1504878361

16:46

8-Сен-17

Саундтреки к фильмам и мультфильмам (lossless) ·· (Score / Ambient, Psychedelic, Blues) [LP] [24/96] Твин Пикс / Twin Peaks (by Angelo Badalamenti) - 1990, FLAC (tracks), lossless Galfimbul 1016959853970 MB 0 0 1292268641

22:30

13-Дек-10

Саундтреки к фильмам и мультфильмам (mp3) ·· (Soundtrack/TV) A.Badalamenti & D.Lynch - Твин Пикс / Twin Peaks Season Two Music And More - 2007, MP3, 320 kbps Galfimbul 172285875164 MB 0 0 1292265236

21:33

13-Дек-10

Саундтреки к фильмам и мультфильмам (mp3) ·· (Score) Твин Пикс / Twin Peaks (Angelo Badalamenti) - 1990, MP3, 320 kbps Phoenix 121647002116 MB 0 0 1292265053

21:30

13-Дек-10

Саундтреки ·· (Score) Твин Пикс / The Twin Peaks (The Twin Peaks Archive) (by Angelo Badalamenti & David Lynch) {WEB} - 2011 (1990-1992), FLAC (tracks), lossless Galfimbul 26836641982.5 GB 0 0 1356622860

18:41

27-Дек-12

Саундтреки ·· (Score) Твин Пикс / The Twin Peaks (The Twin Peaks Archive) (by Angelo Badalamenti & David Lynch) - 2011, MP3, 320 kbps Galfimbul 14156227811.32 GB 0 0 1356814380

23:53

29-Дек-12

Саундтреки к фильмам и мультфильмам (mp3) ·· (Soundtrack) Твин Пикс (3 сезон) / Twin Peakc (3 season) (Twin Peaks OST season 3) - 2017, MP3, 320 kbps Galfimbul 117557858112 MB 0 0 1495709336

13:48

25-Май-17

Саундтреки к фильмам и мультфильмам (lossless) ·· (Dream-Pop, Trip-Hop) Julee Cruise (Джули Круз) - Falling (The Theme From Twin Peaks, Тема из сериала "Твин Пикс") (Single) - 1990, APE (image+.cue), lossless AqvaGen 7666884473 MB 0 0 1292268500

22:28

13-Дек-10

Саундтреки к фильмам и мультфильмам (mp3) ·· (Score) Твин Пикс: Сквозь огонь / Twin Peaks: Fire Walk With Me (Angelo Badalamenti) - 1992 [MP3 320 kbps] Mos 148740581142 MB 0 0 1291107472

11:57

30-Ноя-10

Еще никто не оставлял запись к записи скачать торрент Твин Пикс Twin Peaks . Будь первым!

!Обратная связь