F is For Family torrent

UnionPeer.org . . UnionPeer.org 2014 2015 . .

F is For Family .torrent

, , - AdBlock. #!


7.34 GB   |    :  1 7    |    .torrent :  11    |   
1  
   
...
 

Galfimbul

avatar Galfimbul


/ F is For Family
: F is For Family
:
: 2017
:
: ,
: 20 ()
: ( ) !: : Netflix
: : , , , , : ? . , . - . . , , , .
, . , . , . , . , , .: WEBRip 1080p (Netflix)
: MKV
: x264
: AC3
: MPEG4 Video (H264) 1920x1080 23.976fps ~3300Kbps
1 (Jaskier): Dolby AC3 48000Hz stereo 192Kbps,
2 (): Dolby E-AC3 48000Hz 6ch 640Kbps
:
General
Unique ID : 251587217255942513159489297553665109230 (0xBD45EF7F251A2EB599C537E037692CEE)
Complete name : F.is.for.Family.S02E05.Breaking.Bill.1080p.NF.WEB-DL.DD5.1.x264-Jaskier.mkv
Format : Matroska
Format version : Version 2
File size : 767 MiB
Duration : 27 min 56 s
Overall bit rate mode : Variable
Overall bit rate : 3 838 kb/s
Encoded date : UTC 2017-09-14 20:54:14 / UTC 2017-06-12 23:50:15
Writing application : mkvmerge v5.4.0 ('Piper') built on Mar 10 2012 13:34:39
Writing library : libebml v1.2.3 + libmatroska v1.3.0 / Lavf58.0.0

Video
ID : 1
Format : AVC
Format/Info : Advanced Video Codec
Format profile : Main@L4
Format settings, CABAC : Yes
Format settings, RefFrames : 3 frames
Codec ID : V_MPEG4/ISO/AVC
Duration : 27 min 56 s
Bit rate mode : Variable
Bit rate : 3 320 kb/s
Maximum bit rate : 4 980 kb/s
Width : 1 920 pixels
Height : 1 080 pixels
Display aspect ratio : 16:9
Frame rate mode : Constant
Frame rate : 23.976 (24000/1001) FPS
Color space : YUV
Chroma subsampling : 4:2:0
Bit depth : 8 bits
Scan type : Progressive
Bits/(Pixel*Frame) : 0.067
Stream size : 637 MiB (83%)
Writing library : x264 core 118
Encoding settings : cabac=1 / ref=3 / deblock=1:0:0 / analyse=0x1:0x111 / me=umh / subme=10 / psy=1 / psy_rd=1.00:0.00 / mixed_ref=1 / me_range=24 / chroma_me=1 / trellis=2 / 8x8dct=0 / cqm=0 / deadzone=21,11 / fast_pskip=1 / chroma_qp_offset=-2 / threads=8 / sliced_threads=0 / nr=0 / decimate=1 / interlaced=0 / bluray_compat=0 / constrained_intra=0 / bframes=2 / b_pyramid=0 / b_adapt=2 / b_bias=0 / direct=3 / weightb=1 / open_gop=0 / weightp=2 / keyint=48 / keyint_min=25 / scenecut=0 / intra_refresh=0 / rc_lookahead=0 / rc=2pass / mbtree=1 / bitrate=3320 / ratetol=1.0 / qcomp=0.50 / qpmin=6 / qpmax=51 / qpstep=4 / cplxblur=20.0 / qblur=0.5 / vbv_maxrate=4980 / vbv_bufsize=6640 / nal_hrd=vbr / ip_ratio=1.40 / aq=1:1.00
Default : Yes
Forced : No
Statistics Tags Issue : mkvmerge v11.0.0 ('Alive') 64bit 2017-07-02 00:34:22 / mkvmerge v5.4.0 ('Piper') built on Mar 10 2012 13:34:39 2017-09-14 20:54:14 / UTC 2017-06-12 23:50:15
FromStats_BitRate : 3260757
FromStats_Duration : 00:27:56.050000000
FromStats_FrameCount : 40185
FromStats_StreamSize : 683149170

Audio #1
ID : 2
Format : AC-3
Format/Info : Audio Coding 3
Format settings, Endianness : Big
Codec ID : A_AC3
Duration : 27 min 56 s
Bit rate mode : Constant
Bit rate : 192 kb/s
Channel(s) : 2 channels
Channel positions : Front: L R
Sampling rate : 48.0 kHz
Frame rate : 31.250 FPS (1536 SPF)
Bit depth : 16 bits
Compression mode : Lossy
Stream size : 38.4 MiB (5%)
Language : Russian
Service kind : Complete Main
Default : Yes
Forced : No

Audio #2
ID : 3
Format : AC-3
Format/Info : Audio Coding 3
Format settings, Endianness : Big
Codec ID : A_AC3
Duration : 27 min 56 s
Bit rate mode : Constant
Bit rate : 384 kb/s
Channel(s) : 6 channels
Channel positions : Front: L C R, Side: L R, LFE
Sampling rate : 48.0 kHz
Frame rate : 31.250 FPS (1536 SPF)
Bit depth : 16 bits
Compression mode : Lossy
Stream size : 76.7 MiB (10%)
Language : English
Service kind : Complete Main
Default : No
Forced : No
Encoded date : UTC 2017-06-12 23:50:15
HANDLER_NAME : Audio Media Handler
Statistics Tags Issue : mkvmerge v11.0.0 ('Alive') 64bit 2017-07-02 00:34:22 / mkvmerge v5.4.0 ('Piper') built on Mar 10 2012 13:34:39 2017-09-14 20:54:14 / UTC 2017-06-12 23:50:15
FromStats_BitRate : 384000
FromStats_Duration : 00:27:56.192000000
FromStats_FrameCount : 52381
FromStats_StreamSize : 80457216

Text
ID : 4
Format : UTF-8
Codec ID : S_TEXT/UTF8
Codec ID/Info : UTF-8 Plain Text
Title : English
Language : English
Default : No
Forced : No
Statistics Tags Issue : mkvmerge v11.0.0 ('Alive') 64bit 2017-07-02 00:34:22 / mkvmerge v5.4.0 ('Piper') built on Mar 10 2012 13:34:39 2017-09-14 20:54:14 / UTC 2017-06-12 23:50:15
FromStats_BitRate : 94
FromStats_Duration : 00:27:05.750000000
FromStats_FrameCount : 551
FromStats_StreamSize : 19134


 ·  , , FAQ-
:  [ 15--2017 00:54 ]

  

.torrent

.torrent 20 KB


: 7.34 GB
(hash) : dc7c82427b61f8fb5cad64ee8e17db146850e5fc
:
··
...

F is For Family . !

!