Скачать через торрент Рассол и Арахис Pickle and Peanut Фильм бесплатно в хорошем качестве torrent

Скачивайте на UnionPeer.org фильмы через торрент без регистрации. Новинки кино в хорошем качестве через торрент. На UnionPeer.org можно скачать через торрент фильмы 2014 и 2015 годов. Самые новые фильмы.

Скачать торрент Рассол и Арахис Pickle and Peanut бесплатно через .torrent фильм мультфильм сериал

Если у вас наблюдаются проблемы со скриншотами, переходом по ссылками, скачиванием торрентов - проблемы в блокировщике рекламы AdBlock. #хорошегоДня!


Статистика раздачи
Размер:  391 MB   |    Зарегистрирован:  1 месяц 8 дней   |    .torrent скачан:  34 раза   |   
Раздают:  1  
   
Загрузка...
 
Автор Сообщение

Galfimbul

avatar Galfimbul


Рассол и Арахис / Pickle and Peanut



Страна: США
Жанр: Комедия, Анимация
Продолжительность серии: 00:11:00
Год выпуска: 2015
Перевод: Профессиональный-дублированный (Телеканал 2х2)
Роли озвучивали: Сотрудники телеканала 2x2

Описание: Есть два бро. Один из них — представитель семейства огурительных, второй — семейства орехительных. На пару они работают в супермаркете, противостоят безумию окружающего их мира и отжигают бодрый фристайл. Здесь все: Рассол, Арахис, мускулистый Конь-Чемпион, внутренние бабули, агрессивные школьницы, мальчики-балеруны и еще 4 тысячи упоротых героев, каждый из которых обладает изрядной гипнотической силой.
<img class="smile" src="//static.t-ru.org/smiles/icon_exclaim.gif" alt=""> Раздача ведется путем добавления новых серий <img class="smile" src="//static.t-ru.org/smiles/icon_exclaim.gif" alt="">

Качество: SATRip
Формат: MP4
Видео: DivX,854x480, 25 fps,326 Kbps
Аудио: 44,1kHz, 2ch,126 Kbps
Субтитры: отсутствуют
VideoID : 1Format : AVCFormat/Info : Advanced Video CodecFormat profile : Main@L3.0Format settings, CABAC : YesFormat settings, ReFrames : 3 framesCodec ID : avc1Codec ID/Info : Advanced Video CodingDuration : 10mn 58sBit rate mode : VariableBit rate : 326 KbpsWidth : 854 pixelsHeight : 480 pixelsDisplay aspect ratio : 16:9Frame rate mode : ConstantFrame rate : 25.000 fpsColor space : YUVChroma subsampling : 4:2:0Bit depth : 8 bitsScan type : ProgressiveBits/(Pixel*Frame) : 0.032Stream size : 25.6 MiB (71%)Color primaries : BT.470-6 System B, BT.470-6 System G, BT.601-6 625, BT.1358 625, BT.1700 625 PAL, BT.1700 625 SECAMMatrix coefficients : BT.470-6 System B, BT.470-6 System G, BT.601-6 625, BT.1358 625, BT.1700 625 PAL, BT.1700 625 SECAM, IEC 61966-2-4 601

AudioID : 2Format : AACFormat/Info : Advanced Audio CodecFormat version : Version 4Format profile : LCFormat settings, SBR : NoCodec ID : 40Duration : 10mn 58sBit rate mode : ConstantBit rate : 126 KbpsChannel(s) : 2 channelsChannel positions : Front: L RSampling rate : 44.1 KHzStream size : 9.86 MiB (27%)


Трекер:  [ 14-Сен-2017 17:24 ]

  

Скачать .torrent

Размер .torrent файла 16 KB


Размер: 391 MB
Хэш (hash) релиза: 8b30d6c0234053dc287ca97ac3b4025d7e3a38db
Подписка на обновления:

Еще никто не оставлял запись к записи скачать торрент Рассол и Арахис Pickle and Peanut . Будь первым!

!Обратная связь