Скачать через торрент Тёмный дворецкий: книга Атлантики Kuroshitsuji: Book of the Atlantic бесплатно Аниме Все серии на русском torrent

Если у вас наблюдаются проблемы со скриншотами, переходом по ссылками, скачиванием торрентов - проблемы в блокировщике рекламы AdBlock. #хорошегоДня!


Статистика раздачи
Размер:  10.84 GB   |    Зарегистрирован:  2 месяца 9 дней   |    .torrent скачан:  5 раз   |   
Раздают:  1  
   
Загрузка...
 
Автор Сообщение

Galfimbul

avatar Galfimbul


Тёмный дворецкий: книга Атлантики
Kuroshitsuji: Book of the Atlantic
Black Butler: Book of the Atlantic
黒執事 Book of the Atlantic

Страна: Япония
Год выпуска: 2017 г.
Жанр: комедия, мистика, история
Тип: Movie
Продолжительность: ~100 мин.
Режиссер: Абэ Нориюки
Студия: A-1 PicturesРусские субтитры от SovetRomantica
Перевод: Atai | Редактура: AkiraОписание: Экранизация арки «Campania» из оригинальной манги. Основой для сюжета послужила история о печально известном огромном корабле «Титаник».

В апреле 1889 года граф Сиэль Фантомхайв вместе со своими слугами, Себастьяном и Снейком, поднимается на борт роскошного пассажирского судна «Кампания», на котором также присутствует семейство Мидфорд. Однако он прибыл сюда не в целях отдыха, а для расследования дела о нелегальных экспериментах над людьми, которые позже были продемонстрированы обществом «Аврора» во главе с сомнительным врачом. Умершие люди возвращаются к жизни, но при этом превращаясь в нечто иное, чем живой человек. Что же возрождает мёртвых — прорыв в медицине или неизвестная сила? Сиэль и Себастьян почти в шаге от истины, но догадываются ли они, что, расследуя это дело, сами могут оказаться одной ногой в могиле?Информационные ссылки: AniDB | MyAnimeList | World ArtКачество: BDRip
Тип релиза: Без хардсаба
Формат видео: MKV
Наличие линковки: Нет
Релиз/Автор рипа: Jensen [Beatrice-Raws]
Видео: x264, Hi10p, 1920x1080, 9927 Kbps, 23.976 fps
Аудио (int): JAP, FLAC, 48000 Hz, 1400 Kbps, 2 ch
Аудио (ext): JAP, FLAC, 48000 Hz, 3141 Kbps, 5.1 ch
Субтитры (ext): Rus, ASS
<div class="sp-wrap">
<div class="sp-head folded">MediaInfo</div>
<div class="sp-body">

Формат : MatroskaВерсия формата : Version 4 / Version 2Размер файла : 7,92 ГбайтПродолжительность : 1 ч. 40 м.Режим общего битрейта : ПеременныйОбщий поток : 11,3 Мбит/секДата кодирования : UTC 2017-08-28 23:59:19Программа кодирования : mkvmerge v14.0.0 ('Flow') 64bitБиблиотека кодирования : libebml v1.3.4 + libmatroska v1.4.5

ВидеоИдентификатор : 1Формат : AVCФормат/Информация : Advanced Video CodecПрофиль формата : High 10@L5Параметр CABAC формата : ДаПараметр ReFrames формата : 4 кадраИдентификатор кодека : V_MPEG4/ISO/AVCПродолжительность : 1 ч. 40 м.Битрейт : 9927 Кбит/секШирина : 1920 пикселейВысота : 1080 пикселейСоотношение сторон : 16:9Режим частоты кадров : ПостоянныйЧастота кадров : 23,976 (24000/1001) кадра/секЦветовое пространство : YUVСубдискретизация насыщенности : 4:2:0Битовая глубина : 10 битТип развёртки : ПрогрессивнаяБит/(Пиксели*Кадры) : 0.200Размер потока : 6,94 Гбайт (88%)Заголовок : BDrip by JensenБиблиотека кодирования : x264 core 148 r2597M e86f3a1 (DJATOM's build)Настройки программы : cabac=1 / ref=4 / deblock=1:1:-1 / analyse=0x3:0x113 / me=umh / subme=9 / psy=1 / fade_compensate=0.00 / psy_rd=1.00:0.00 / mixed_ref=1 / me_range=32 / chroma_me=1 / trellis=2 / 8x8dct=1 / cqm=0 / deadzone=21,11 / fast_pskip=1 / chroma_qp_offset=-2 / threads=34 / lookahead_threads=5 / sliced_threads=0 / nr=0 / decimate=1 / interlaced=0 / bluray_compat=0 / constrained_intra=0 / bframes=9 / b_pyramid=2 / b_adapt=2 / b_bias=0 / direct=1 / weightb=1 / open_gop=0 / weightp=2 / keyint=240 / keyint_min=23 / scenecut=40 / intra_refresh=0 / rc=crf / mbtree=0 / crf=15.0000 / qcomp=0.72 / qpmin=0 / qpmax=81 / qpstep=4 / ip_ratio=1.40 / pb_ratio=1.30 / aq=1:0.85Язык : JapaneseDefault : ДаForced : НетЦветовой диапазон : LimitedОсновные цвета : BT.709Характеристики трансфера : BT.709Коэффициенты матрицы : BT.709

АудиоИдентификатор : 2Формат : FLACФормат/Информация : Free Lossless Audio CodecИдентификатор кодека : A_FLACПродолжительность : 1 ч. 40 м.Вид битрейта : ПеременныйБитрейт : 1400 Кбит/секКаналы : 2 каналаРасположение каналов : Front: L RЧастота : 48,0 КГцЧастота кадров : 11,719 кадров/сек (4096 spf)Битовая глубина : 24 битРазмер потока : 1002 Мбайт (12%)Библиотека кодирования : libFLAC 1.3.1 (UTC 2014-11-25)Язык : JapaneseDefault : ДаForced : Нет

Меню00:00:00.000 : en:Avant00:07:28.698 : en:Part A00:19:26.165 : en:Part B00:34:02.040 : en:Part C00:39:30.326 : en:Part D00:50:24.021 : en:Part E00:57:49.424 : en:Part F01:09:14.441 : en:Part G01:23:38.888 : en:Part H01:34:06.515 : en:ED01:38:05.880 : en:Part I
Duration: 01:40:03 (6003) Track #1: video (BDrip by Jensen) lang: jpn (2) codc: V_MPEG4/ISO/AVC -> H264/AVC (22) reso: 1920x1080 -> 16:9 fram: 23.976 fps rate: 9927 kbps (9927.09) dura: 01:40:03 (6002.96) size: 6.94 GB (7448983847) Track #2: audio lang: jpn -> Japanese (2) codc: A_FLAC -> Other (15) chan: 2 -> Stereo samp: 48000 Hz rate: 1400 kbps (1400.43) dura: 01:40:03 (6002.94) size: 0.98 GB (1050840286) Sizes: (check sanity) disk: 7.92 GB (8501123467) trac: 3.92 GB (4204856837) [based on track size] bitr: 7.92 GB (8499826059) [based on bitrate] tdif: 4.00 GB (4296266630) 50.53% bdif: 1.24 MB (1297407) 0.01%
</div>
</div>

Трекер:  [ 14-Сен-2017 16:30 ]

  

Скачать .torrent

Размер .torrent файла 18 KB


Размер: 10.84 GB
Хэш (hash) релиза: c2e1cf0e73b2b0322ff076f4935e8a7c29d4463a
Подписка на обновления:

Еще никто не оставлял запись к записи скачать торрент Тёмный дворецкий: книга Атлантики Kuroshitsuji: Book of the Atlantic . Будь первым!

!Обратная связь