Скачать через торрент Свет морского ангела Clione no Akari бесплатно Аниме Все серии на русском torrent

Если у вас наблюдаются проблемы со скриншотами, переходом по ссылками, скачиванием торрентов - проблемы в блокировщике рекламы AdBlock. #хорошегоДня!


Статистика раздачи
Размер:  1.3 GB   |    Зарегистрирован:  11 дней   |    .torrent скачан:  1 раз   |   
Раздают:  1  
   
Загрузка...
 
Автор Сообщение

Galfimbul

avatar Galfimbul


Свет морского ангела
Clione no Akari
Lights of the Clione
クリオネの灯り

Страна: Япония
Год выпуска: 2017 г.
Жанр: драма, повседневность, школа
Тип: TV
Продолжительность: 12 эп. по 9 мин.
Режиссер: Исикава Наоя
Студия: Kyoutoma, dropРусские субтитры от AniPlay
Перевод: Lolo, Virel | Редактура: OctupusОписание: Когда мы вспоминаем об азиатских школах, то сразу же на ум приходит острая проблема издевательств над более слабыми учениками. Причём, масштаб этой проблемы огромен: от постоянных подкалываний до настоящей травли. Это аниме расскажет нам об одном из таких случаев. Минори Амамия частенько болеет. Порой даже весь день не вылезает из медпункта. Она очень добрая и чувствительная, но именно её ребята выбрали объектом для своих издевательств. Вечные насмешки, распространение слухов, избегание и открытое глумление - это лишь часть нелёгкой жизни Минори.

Такаши Аой и Кёко Цукихаши - друзья детства и одноклассники Минори. Им очень жаль эту девочку, в мыслях они всегда представляют, как заступаются за неё. Но это остаётся лишь в воображении. В реальности же они не делают ничего. Ребята очень переживают за Минори и ненавидят себя за трусость. Вскоре здоровье Минори ухудшилось, и она перестала ходить в школу. Спустя 2 месяца и 1 день для Такаши и Кёко приходит письмо без обратного адреса, а в письме лежит приглашение на летний фестиваль в соседнем городе...Информационные ссылки: AniDB | MyAnimeList | World ArtКачество: HDTVRip
Тип релиза: Без хардсаба
Формат видео: MKV
Наличие линковки: Нет
Релиз/Автор рипа: Leopard-Raws
Видео: x264, 8 bit, 1280x720, ~1805 Kbps, 23.976 fps
Аудио (int): AAC, 48000 Hz, ~192 Kbps, 2 ch
Субтитры (ext): Rus, ASS
<div class="sp-wrap">
<div class="sp-head folded">MediaInfo</div>
<div class="sp-body">

Формат : MatroskaВерсия формата : Version 4 / Version 2Размер файла : 129 МбайтПродолжительность : 9 м. 0 с.Общий поток : 1998 Кбит/секДата кодирования : UTC 2017-09-14 09:02:02Программа кодирования : mkvmerge v9.6.0 ('Slave To Your Mind') 32bitБиблиотека кодирования : libebml v1.3.4 + libmatroska v1.4.5

ВидеоИдентификатор : 1Формат : AVCФормат/Информация : Advanced Video CodecПрофиль формата : High@L4.1Параметр CABAC формата : ДаПараметр ReFrames формата : 4 кадраИдентификатор кодека : V_MPEG4/ISO/AVCПродолжительность : 8 м. 59 с.Битрейт : 1805 Кбит/секШирина : 1280 пикселейВысота : 720 пикселейСоотношение сторон : 16:9Режим частоты кадров : ПостоянныйЧастота кадров : 23,976 (24000/1001) кадра/секЦветовое пространство : YUVСубдискретизация насыщенности : 4:2:0Битовая глубина : 8 битТип развёртки : ПрогрессивнаяБит/(Пиксели*Кадры) : 0.082Размер потока : 116 Мбайт (90%)Библиотека кодирования : x264 core 129 r2245+729M 1a52e03Настройки программы : cabac=1 / ref=4 / deblock=1:1:-1 / analyse=0x3:0x113 / me=umh / subme=9 / psy=1 / fade_compensate=0.00 / psy_rd=1.00:0.00 / mixed_ref=1 / me_range=24 / chroma_me=1 / trellis=2 / 8x8dct=1 / cqm=0 / deadzone=21,11 / fast_pskip=1 / chroma_qp_offset=-2 / threads=8 / lookahead_threads=1 / sliced_threads=0 / nr=0 / decimate=1 / interlaced=0 / bluray_compat=0 / constrained_intra=0 / fgo=0 / bframes=9 / b_pyramid=2 / b_adapt=2 / b_bias=0 / direct=1 / weightb=1 / open_gop=0 / weightp=2 / keyint=240 / keyint_min=24 / scenecut=40 / intra_refresh=0 / rc=crf / mbtree=0 / crf=18.5 / qcomp=0.72 / qpmin=0 / qpmax=69 / qpstep=4 / ip_ratio=1.40 / pb_ratio=1.30 / aq=1:0.85Default : ДаForced : НетЦветовой диапазон : LimitedОсновные цвета : BT.709Характеристики трансфера : BT.709Коэффициенты матрицы : BT.709

АудиоИдентификатор : 2Формат : AACФормат/Информация : Advanced Audio CodecПрофиль формата : LCИдентификатор кодека : A_AACПродолжительность : 9 м. 0 с.Битрейт : 192 Кбит/секКаналы : 2 каналаРасположение каналов : Front: L RЧастота : 48,0 КГцЧастота кадров : 46,875 кадров/сек (1024 spf)Метод сжатия : С потерямиРазмер потока : 12,3 Мбайт (10%)Язык : JapaneseDefault : ДаForced : Нет
</div>
</div>
01. All Alone
02. Promise
03. Courage
04. The Aquarium
05. See You Tomorrow
06. One Hundred Days` Flower
07. The Bustling Festival
08. A Tiny Lighthouse
09. The Lighthouse and the Tetrapods
10. After the Festival, the Morning Light
11.
12.


Трекер:  [ 14-Сен-2017 13:30 ]

  

Скачать .torrent

Размер .torrent файла 6 KB


Размер: 1.3 GB
Хэш (hash) релиза: fbf105d1ae8e201c61498a21d512e27cc270b9a2
Подписка на обновления:

Еще никто не оставлял запись к записи скачать торрент Свет морского ангела Clione no Akari . Будь первым!

!Обратная связь