Скачать через торрент музыку Кикбоксер Kickboxer - The 2014 Deluxe Edition бесплатно без регистрации torrent

Если у вас наблюдаются проблемы со скриншотами, переходом по ссылками, скачиванием торрентов - проблемы в блокировщике рекламы AdBlock. #хорошегоДня!


Статистика раздачи
Размер:  680 MB   |    Зарегистрирован:  2 месяца 7 дней   |    .torrent скачан:  9 раз   |   
Раздают:  1  
   
Загрузка...
 
Автор Сообщение

Galfimbul

avatar Galfimbul


Кикбоксер |
Kickboxer - The 2014 Deluxe Edition
Жанр: Score / Soundtrack
Композитор: Paul Hertzog
Год выпуска диска: 2014
Год выпуска фильма: 1989
Страна-производитель диска: USA
Издатель (лейбл): Perseverance Records
Номер по каталогу: PRD 076
Аудио кодек: FLAC (*.flac)
Тип рипа: tracks+.cue
Битрейт аудио: lossless
Продолжительность: 01:12:13
Источник: Собственный рип
Наличие сканов в содержимом раздачи: да (*tiff, 600 dpi)
1. Streets of Siam (03:51)Performed by Stan Bush2. To The Hospital/We’ll See (01:15)3. Groceries (01:48)4. Very Stupid (00:45)5. Tai Chi (02:55)6. First Kiss (00:53)7. Stone City (02:33)8. Second Stone (00:52)9. Hospital (02:21)10. Palm Tree (00:30)11. Advanced Training (01:47)12. Ancient Voices (02:07)13. Mylee Is The Way (01:31)14. Warriors (00:44)15. Buddha’s Eagle (01:01)16. Kidnap (01:01)17. You’ve Done It Before (01:45)18. Downstairs (00:54)19. Round One (02:11)20. Round Two (01:36)21. The Hook (01:31)22. Round Three (01:31)23. The Eagle Lands (04:02)24. Never Surrender (04:38)Performed by Stan Bush25. Fight for Love (03:22)Performed by Stan Bush26. How Do You Keep Me Comin’ Back (03:34)Performed by Terry Wood27. Chack’s Stew (03:25)Performed by Jamboxx28. Roll with the Punches (03:38)Performed by Michael Logan29. Feeling So Good Today (04:12)Performed by Beau Williams30. The Eagle Lands [Album Mix] (04:33)31. Love is the Way (Original End Title) (05:27)Performed by Craig Copeland...
Exact Audio Copy V1.3 from 2. September 2016

EAC extraction logfile from 13. September 2017, 19:20

Paul Hertzog / Kickboxer Delux Edition

Used drive : PLEXTOR DVDR PX-L890SA Adapter: 1 ID: 0

Read mode : SecureUtilize accurate stream : YesDefeat audio cache : YesMake use of C2 pointers : No

Read offset correction : 6Overread into Lead-In and Lead-Out : NoFill up missing offset samples with silence : YesDelete leading and trailing silent blocks : NoNull samples used in CRC calculations : YesUsed interface : Native Win32 interface for Win NT & 2000Gap handling : Appended to previous track

Used output format : User Defined EncoderSelected bitrate : 128 kBit/sQuality : HighAdd ID3 tag : NoCommand line compressor : C:\Program Files\Exact Audio Copy\Flac\flac.exeAdditional command line options : -V -8 -T "Genre=%genre%" -T "Artist=%artist%" -T "Title=%title%" -T "Album=%albumtitle%" -T "Date=%year%" -T "Tracknumber=%tracknr%" -T "Comment=%comment%" %source%

TOC of the extracted CD

Track | Start | Length | Start sector | End sector --------------------------------------------------------- 1 | 0:00.00 | 3:51.70 | 0 | 17394 2 | 3:51.70 | 1:16.17 | 17395 | 23111 3 | 5:08.12 | 1:48.04 | 23112 | 31215 4 | 6:56.16 | 0:45.61 | 31216 | 34651 5 | 7:42.02 | 2:56.07 | 34652 | 47858 6 | 10:38.09 | 0:53.23 | 47859 | 51856 7 | 11:31.32 | 2:33.61 | 51857 | 63392 8 | 14:05.18 | 0:53.23 | 63393 | 67390 9 | 14:58.41 | 2:21.53 | 67391 | 78018 10 | 17:20.19 | 0:30.00 | 78019 | 80268 11 | 17:50.19 | 1:48.05 | 80269 | 88373 12 | 19:38.24 | 2:07.48 | 88374 | 97946 13 | 21:45.72 | 1:32.12 | 97947 | 104858 14 | 23:18.09 | 0:44.47 | 104859 | 108205 15 | 24:02.56 | 1:02.05 | 108206 | 112860 16 | 25:04.61 | 1:02.17 | 112861 | 117527 17 | 26:07.03 | 1:45.16 | 117528 | 125418 18 | 27:52.19 | 0:55.08 | 125419 | 129551 19 | 28:47.27 | 2:11.43 | 129552 | 139419 20 | 30:58.70 | 1:36.20 | 139420 | 146639 21 | 32:35.15 | 1:32.03 | 146640 | 153542 22 | 34:07.18 | 1:31.63 | 153543 | 160430 23 | 35:39.06 | 4:02.13 | 160431 | 178593 24 | 39:41.19 | 4:38.72 | 178594 | 199515 25 | 44:20.16 | 3:23.23 | 199516 | 214763 26 | 47:43.39 | 3:35.30 | 214764 | 230918 27 | 51:18.69 | 3:25.32 | 230919 | 246325 28 | 54:44.26 | 3:39.26 | 246326 | 262776 29 | 58:23.52 | 4:13.15 | 262777 | 281766 30 | 62:36.67 | 4:33.72 | 281767 | 302313 31 | 67:10.64 | 5:26.47 | 302314 | 326810

Track 1

Filename F:\torrent\Kickboxer_Paul Hertzog\score\01 Stan Bush - Streets of Siam.wav

Pre-gap length 0:00:02.00

Peak level 91.8 % Extraction speed 5.5 X Track quality 100.0 % Test CRC A68BC3FC Copy CRC A68BC3FC Accurately ripped (confidence 6) [A973D202] (AR v2) Copy OK

Track 2

Filename F:\torrent\Kickboxer_Paul Hertzog\score\02 Paul Hertzog - To The Hospital,We'll See.wav

Pre-gap length 0:00:00.74

Peak level 91.9 % Extraction speed 4.5 X Track quality 100.0 % Test CRC CDFD25FE Copy CRC CDFD25FE Accurately ripped (confidence 6) [2D914C1A] (AR v2) Copy OK

Track 3

Filename F:\torrent\Kickboxer_Paul Hertzog\score\03 Paul Hertzog - Groceries.wav

Pre-gap length 0:00:01.00

Peak level 91.9 % Extraction speed 5.1 X Track quality 100.0 % Test CRC FCAD17D2 Copy CRC FCAD17D2 Accurately ripped (confidence 6) [0841CE34] (AR v2) Copy OK

Track 4

Filename F:\torrent\Kickboxer_Paul Hertzog\score\04 Paul Hertzog - Very Stupid.wav

Pre-gap length 0:00:00.34

Peak level 91.9 % Extraction speed 2.7 X Track quality 99.7 % Test CRC 8FF6B9B2 Copy CRC 8FF6B9B2 Accurately ripped (confidence 6) [4DF84C98] (AR v2) Copy OK

Track 5

Filename F:\torrent\Kickboxer_Paul Hertzog\score\05 Paul Hertzog - Tai Chi.wav

Pre-gap length 0:00:00.42

Peak level 82.1 % Extraction speed 6.1 X Track quality 100.0 % Test CRC 2A63DF39 Copy CRC 2A63DF39 Accurately ripped (confidence 6) [28F269C3] (AR v2) Copy OK

Track 6

Filename F:\torrent\Kickboxer_Paul Hertzog\score\06 Paul Hertzog - First Kiss.wav

Pre-gap length 0:00:01.02

Peak level 88.4 % Extraction speed 4.5 X Track quality 100.0 % Test CRC 0A85B638 Copy CRC 0A85B638 Accurately ripped (confidence 6) [B3D1C398] (AR v2) Copy OK

Track 7

Filename F:\torrent\Kickboxer_Paul Hertzog\score\07 Paul Hertzog - Stone City.wav

Pre-gap length 0:00:00.29

Peak level 91.9 % Extraction speed 6.3 X Track quality 100.0 % Test CRC 2DC98CD7 Copy CRC 2DC98CD7 Accurately ripped (confidence 6) [99CD6D0B] (AR v2) Copy OK

Track 8

Filename F:\torrent\Kickboxer_Paul Hertzog\score\08 Paul Hertzog - Second Stone.wav

Pre-gap length 0:00:00.50

Peak level 91.9 % Extraction speed 4.7 X Track quality 100.0 % Test CRC 79099CFB Copy CRC 79099CFB Accurately ripped (confidence 6) [C140E67A] (AR v2) Copy OK

Track 9

Filename F:\torrent\Kickboxer_Paul Hertzog\score\09 Paul Hertzog - Hospital.wav

Pre-gap length 0:00:01.07

Peak level 63.2 % Extraction speed 6.5 X Track quality 100.0 % Test CRC 7A4B1F94 Copy CRC 7A4B1F94 Accurately ripped (confidence 6) [98E191AA] (AR v2) Copy OK

Track 10

Filename F:\torrent\Kickboxer_Paul Hertzog\score\10 Paul Hertzog - Palm Tree.wav

Pre-gap length 0:00:00.57

Peak level 89.7 % Extraction speed 3.7 X Track quality 100.0 % Test CRC 0BFC22AB Copy CRC 0BFC22AB Accurately ripped (confidence 6) [9E15C972] (AR v2) Copy OK

Track 11

Filename F:\torrent\Kickboxer_Paul Hertzog\score\11 Paul Hertzog - Advanced Training.wav

Pre-gap length 0:00:00.40

Peak level 91.9 % Extraction speed 6.2 X Track quality 100.0 % Test CRC 5984B6D9 Copy CRC 5984B6D9 Accurately ripped (confidence 6) [FDFB1B12] (AR v2) Copy OK

Track 12

Filename F:\torrent\Kickboxer_Paul Hertzog\score\12 Paul Hertzog - Ancient Voices.wav

Pre-gap length 0:00:00.63

Peak level 89.0 % Extraction speed 6.7 X Track quality 100.0 % Test CRC 97070AEA Copy CRC 97070AEA Accurately ripped (confidence 6) [02576FFF] (AR v2) Copy OK

Track 13

Filename F:\torrent\Kickboxer_Paul Hertzog\score\13 Paul Hertzog - Mylee Is The Way.wav

Pre-gap length 0:00:01.03

Peak level 91.9 % Extraction speed 6.5 X Track quality 100.0 % Test CRC 5076B7C9 Copy CRC 5076B7C9 Accurately ripped (confidence 6) [ABDA8105] (AR v2) Copy OK

Track 14

Filename F:\torrent\Kickboxer_Paul Hertzog\score\14 Paul Hertzog - Warriors.wav

Pre-gap length 0:00:00.60

Peak level 89.0 % Extraction speed 5.0 X Track quality 100.0 % Test CRC BB2F6014 Copy CRC BB2F6014 Accurately ripped (confidence 6) [86F3F8A3] (AR v2) Copy OK

Track 15

Filename F:\torrent\Kickboxer_Paul Hertzog\score\15 Paul Hertzog - Budda;s Eagle.wav

Pre-gap length 0:00:00.50

Peak level 91.8 % Extraction speed 4.2 X Track quality 99.8 % Test CRC 198E390E Copy CRC 198E390E Accurately ripped (confidence 6) [C5187C10] (AR v2) Copy OK

Track 16

Filename F:\torrent\Kickboxer_Paul Hertzog\score\16 Paul Hertzog - Kidnap.wav

Pre-gap length 0:00:00.63

Peak level 85.0 % Extraction speed 5.8 X Track quality 100.0 % Test CRC F6816E50 Copy CRC F6816E50 Accurately ripped (confidence 6) [D327F310] (AR v2) Copy OK

Track 17

Filename F:\torrent\Kickboxer_Paul Hertzog\score\17 Paul Hertzog - You've Done It Before.wav

Pre-gap length 0:00:00.63

Peak level 74.8 % Extraction speed 5.6 X Track quality 99.8 % Test CRC 3971526F Copy CRC 3971526F Accurately ripped (confidence 6) [6B0840EF] (AR v2) Copy OK

Track 18

Filename F:\torrent\Kickboxer_Paul Hertzog\score\18 Paul Hertzog - Downstairs.wav

Pre-gap length 0:00:00.57

Peak level 73.4 % Extraction speed 4.0 X Track quality 99.8 % Test CRC 68C1F10E Copy CRC 68C1F10E Accurately ripped (confidence 6) [29891E63] (AR v2) Copy OK

Track 19

Filename F:\torrent\Kickboxer_Paul Hertzog\score\19 Paul Hertzog - Round One.wav

Pre-gap length 0:00:01.42

Peak level 91.9 % Extraction speed 7.6 X Track quality 100.0 % Test CRC 36A6B14B Copy CRC 36A6B14B Accurately ripped (confidence 6) [26DE0622] (AR v2) Copy OK

Track 20

Filename F:\torrent\Kickboxer_Paul Hertzog\score\20 Paul Hertzog - Round Two.wav

Pre-gap length 0:00:00.42

Peak level 91.9 % Extraction speed 5.5 X Track quality 99.8 % Test CRC 4310984F Copy CRC 4310984F Accurately ripped (confidence 6) [1287A872] (AR v2) Copy OK

Track 21

Filename F:\torrent\Kickboxer_Paul Hertzog\score\21 Paul Hertzog - The Hook.wav

Pre-gap length 0:00:00.45

Peak level 91.9 % Extraction speed 7.1 X Track quality 100.0 % Test CRC E39DE247 Copy CRC E39DE247 Accurately ripped (confidence 6) [A3937B72] (AR v2) Copy OK

Track 22

Filename F:\torrent\Kickboxer_Paul Hertzog\score\22 Paul Hertzog - Round Three.wav

Pre-gap length 0:00:00.57

Peak level 91.9 % Extraction speed 7.1 X Track quality 100.0 % Test CRC E1893B70 Copy CRC E1893B70 Accurately ripped (confidence 6) [266A9D8D] (AR v2) Copy OK

Track 23

Filename F:\torrent\Kickboxer_Paul Hertzog\score\23 Paul Hertzog - The Eagle Lands.wav

Pre-gap length 0:00:00.32

Peak level 91.9 % Extraction speed 9.0 X Track quality 100.0 % Test CRC D510EEE3 Copy CRC D510EEE3 Accurately ripped (confidence 6) [34719E65] (AR v2) Copy OK

Track 24

Filename F:\torrent\Kickboxer_Paul Hertzog\score\24 Stan Bush - Never Surrender.wav

Pre-gap length 0:00:00.37

Peak level 91.8 % Extraction speed 9.5 X Track quality 100.0 % Test CRC DA39BEC5 Copy CRC DA39BEC5 Accurately ripped (confidence 6) [47C55EA7] (AR v2) Copy OK

Track 25

Filename F:\torrent\Kickboxer_Paul Hertzog\score\25 Stan Bush - Fight For Love.wav

Pre-gap length 0:00:00.74

Peak level 91.8 % Extraction speed 9.3 X Track quality 100.0 % Test CRC 8F9CB86A Copy CRC 8F9CB86A Accurately ripped (confidence 6) [6C09182C] (AR v2) Copy OK

Track 26

Filename F:\torrent\Kickboxer_Paul Hertzog\score\26 Terry Wood - How Do you Keep Me Comin' Back.wav

Pre-gap length 0:00:00.74

Peak level 91.8 % Extraction speed 9.9 X Track quality 100.0 % Test CRC 48F2D985 Copy CRC 48F2D985 Accurately ripped (confidence 6) [35724E16] (AR v2) Copy OK

Track 27

Filename F:\torrent\Kickboxer_Paul Hertzog\score\27 Jamboxx - Chack's Stew.wav

Pre-gap length 0:00:01.00

Peak level 91.8 % Extraction speed 10.2 X Track quality 100.0 % Test CRC 4299F932 Copy CRC 4299F932 Accurately ripped (confidence 6) [1245D651] (AR v2) Copy OK

Track 28

Filename F:\torrent\Kickboxer_Paul Hertzog\score\28 Michael Logan - Roll With The Punches.wav

Pre-gap length 0:00:00.74

Peak level 91.8 % Extraction speed 10.2 X Track quality 100.0 % Test CRC F0E5EAB1 Copy CRC F0E5EAB1 Accurately ripped (confidence 6) [AFE14274] (AR v2) Copy OK

Track 29

Filename F:\torrent\Kickboxer_Paul Hertzog\score\29 Beau Williams - Feeling So Good Today.wav

Pre-gap length 0:00:00.74

Peak level 91.8 % Extraction speed 10.5 X Track quality 100.0 % Test CRC B3F2D96C Copy CRC B3F2D96C Accurately ripped (confidence 6) [C28AE0F8] (AR v2) Copy OK

Track 30

Filename F:\torrent\Kickboxer_Paul Hertzog\score\30 Paul Hertzog - The Eagle Lands.wav

Pre-gap length 0:00:00.74

Peak level 91.8 % Extraction speed 10.8 X Track quality 100.0 % Test CRC 47A47A43 Copy CRC 47A47A43 Accurately ripped (confidence 6) [BBBFD936] (AR v2) Copy OK

Track 31

Filename F:\torrent\Kickboxer_Paul Hertzog\score\31 Paul Hertzog - Love Is The Way.wav

Pre-gap length 0:00:00.74

Peak level 91.7 % Extraction speed 11.2 X Track quality 100.0 % Test CRC B1203F6E Copy CRC B1203F6E Accurately ripped (confidence 6) [B5F7EF27] (AR v2) Copy OK

All tracks accurately ripped

No errors occurred

End of status report

==== Log checksum BA24E1C2A795EBC6183871ED7DDFDC4BFBFB3D6377005C0DEB11FE03F4908952 ====
REM GENRE SoundtrackREM DATE 2014REM DISCID 9C11051FREM COMMENT "ExactAudioCopy v1.3"PERFORMER "Paul Hertzog"TITLE "Kickboxer Delux Edition"REM COMPOSER "Paul Hertzog"FILE "01 Stan Bush - Streets of Siam.wav" WAVE TRACK 01 AUDIO TITLE "Streets of Siam" PERFORMER "Stan Bush" REM COMPOSER "Paul Hertzog" INDEX 01 00:00:00 TRACK 02 AUDIO TITLE "To The Hospital/We'll See" PERFORMER "Paul Hertzog" REM COMPOSER "Paul Hertzog" INDEX 00 03:50:71FILE "02 Paul Hertzog - To The Hospital,We'll See.wav" WAVE INDEX 01 00:00:00 TRACK 03 AUDIO TITLE "Groceries" PERFORMER "Paul Hertzog" REM COMPOSER "Paul Hertzog" INDEX 00 01:15:17FILE "03 Paul Hertzog - Groceries.wav" WAVE INDEX 01 00:00:00 TRACK 04 AUDIO TITLE "Very Stupid" PERFORMER "Paul Hertzog" REM COMPOSER "Paul Hertzog" INDEX 00 01:47:45FILE "04 Paul Hertzog - Very Stupid.wav" WAVE INDEX 01 00:00:00 TRACK 05 AUDIO TITLE "Tai Chi" PERFORMER "Paul Hertzog" REM COMPOSER "Paul Hertzog" INDEX 00 00:45:19FILE "05 Paul Hertzog - Tai Chi.wav" WAVE INDEX 01 00:00:00 TRACK 06 AUDIO TITLE "First Kiss" PERFORMER "Paul Hertzog" REM COMPOSER "Paul Hertzog" INDEX 00 02:55:05FILE "06 Paul Hertzog - First Kiss.wav" WAVE INDEX 01 00:00:00 TRACK 07 AUDIO TITLE "Stone City" PERFORMER "Paul Hertzog" REM COMPOSER "Paul Hertzog" INDEX 00 00:52:69FILE "07 Paul Hertzog - Stone City.wav" WAVE INDEX 01 00:00:00 TRACK 08 AUDIO TITLE "Second Stone" PERFORMER "Paul Hertzog" REM COMPOSER "Paul Hertzog" INDEX 00 02:33:11FILE "08 Paul Hertzog - Second Stone.wav" WAVE INDEX 01 00:00:00 TRACK 09 AUDIO TITLE "Hospital" PERFORMER "Paul Hertzog" REM COMPOSER "Paul Hertzog" INDEX 00 00:52:16FILE "09 Paul Hertzog - Hospital.wav" WAVE INDEX 01 00:00:00 TRACK 10 AUDIO TITLE "Palm Tree" PERFORMER "Paul Hertzog" REM COMPOSER "Paul Hertzog" INDEX 00 02:20:71FILE "10 Paul Hertzog - Palm Tree.wav" WAVE INDEX 01 00:00:00 TRACK 11 AUDIO TITLE "Advanced Training" PERFORMER "Paul Hertzog" REM COMPOSER "Paul Hertzog" INDEX 00 00:29:35FILE "11 Paul Hertzog - Advanced Training.wav" WAVE INDEX 01 00:00:00 TRACK 12 AUDIO TITLE "Ancient Voices" PERFORMER "Paul Hertzog" REM COMPOSER "Paul Hertzog" INDEX 00 01:47:17FILE "12 Paul Hertzog - Ancient Voices.wav" WAVE INDEX 01 00:00:00 TRACK 13 AUDIO TITLE "Mylee Is The Way" PERFORMER "Paul Hertzog" REM COMPOSER "Paul Hertzog" INDEX 00 02:06:45FILE "13 Paul Hertzog - Mylee Is The Way.wav" WAVE INDEX 01 00:00:00 TRACK 14 AUDIO TITLE "Warriors" PERFORMER "Paul Hertzog" REM COMPOSER "Paul Hertzog" INDEX 00 01:31:27FILE "14 Paul Hertzog - Warriors.wav" WAVE INDEX 01 00:00:00 TRACK 15 AUDIO TITLE "Budda;s Eagle" PERFORMER "Paul Hertzog" REM COMPOSER "Paul Hertzog" INDEX 00 00:43:72FILE "15 Paul Hertzog - Budda;s Eagle.wav" WAVE INDEX 01 00:00:00 TRACK 16 AUDIO TITLE "Kidnap" PERFORMER "Paul Hertzog" REM COMPOSER "Paul Hertzog" INDEX 00 01:01:17FILE "16 Paul Hertzog - Kidnap.wav" WAVE INDEX 01 00:00:00 TRACK 17 AUDIO TITLE "You've Done It Before" PERFORMER "Paul Hertzog" REM COMPOSER "Paul Hertzog" INDEX 00 01:01:29FILE "17 Paul Hertzog - You've Done It Before.wav" WAVE INDEX 01 00:00:00 TRACK 18 AUDIO TITLE "Downstairs" PERFORMER "Paul Hertzog" REM COMPOSER "Paul Hertzog" INDEX 00 01:44:34FILE "18 Paul Hertzog - Downstairs.wav" WAVE INDEX 01 00:00:00 TRACK 19 AUDIO TITLE "Round One" PERFORMER "Paul Hertzog" REM COMPOSER "Paul Hertzog" INDEX 00 00:53:41FILE "19 Paul Hertzog - Round One.wav" WAVE INDEX 01 00:00:00 TRACK 20 AUDIO TITLE "Round Two" PERFORMER "Paul Hertzog" REM COMPOSER "Paul Hertzog" INDEX 00 02:11:01FILE "20 Paul Hertzog - Round Two.wav" WAVE INDEX 01 00:00:00 TRACK 21 AUDIO TITLE "The Hook" PERFORMER "Paul Hertzog" REM COMPOSER "Paul Hertzog" INDEX 00 01:35:50FILE "21 Paul Hertzog - The Hook.wav" WAVE INDEX 01 00:00:00 TRACK 22 AUDIO TITLE "Round Three" PERFORMER "Paul Hertzog" REM COMPOSER "Paul Hertzog" INDEX 00 01:31:21FILE "22 Paul Hertzog - Round Three.wav" WAVE INDEX 01 00:00:00 TRACK 23 AUDIO TITLE "The Eagle Lands" PERFORMER "Paul Hertzog" REM COMPOSER "Paul Hertzog" INDEX 00 01:31:31FILE "23 Paul Hertzog - The Eagle Lands.wav" WAVE INDEX 01 00:00:00 TRACK 24 AUDIO TITLE "Never Surrender" PERFORMER "Stan Bush" REM COMPOSER "Paul Hertzog" INDEX 00 04:01:51FILE "24 Stan Bush - Never Surrender.wav" WAVE INDEX 01 00:00:00 TRACK 25 AUDIO TITLE "Fight For Love" PERFORMER "Stan Bush" REM COMPOSER "Paul Hertzog" INDEX 00 04:37:73FILE "25 Stan Bush - Fight For Love.wav" WAVE INDEX 01 00:00:00 TRACK 26 AUDIO TITLE "How Do you Keep Me Comin' Back" PERFORMER "Terry Wood" REM COMPOSER "Paul Hertzog" INDEX 00 03:22:24FILE "26 Terry Wood - How Do you Keep Me Comin' Back.wav" WAVE INDEX 01 00:00:00 TRACK 27 AUDIO TITLE "Chack's Stew" PERFORMER "Jamboxx" REM COMPOSER "Paul Hertzog" INDEX 00 03:34:30FILE "27 Jamboxx - Chack's Stew.wav" WAVE INDEX 01 00:00:00 TRACK 28 AUDIO TITLE "Roll With The Punches" PERFORMER "Michael Logan" REM COMPOSER "Paul Hertzog" INDEX 00 03:24:33FILE "28 Michael Logan - Roll With The Punches.wav" WAVE INDEX 01 00:00:00 TRACK 29 AUDIO TITLE "Feeling So Good Today" PERFORMER "Beau Williams" REM COMPOSER "Paul Hertzog" INDEX 00 03:38:27FILE "29 Beau Williams - Feeling So Good Today.wav" WAVE INDEX 01 00:00:00 TRACK 30 AUDIO TITLE "The Eagle Lands" PERFORMER "Paul Hertzog" REM COMPOSER "Paul Hertzog" INDEX 00 04:12:16FILE "30 Paul Hertzog - The Eagle Lands.wav" WAVE INDEX 01 00:00:00 TRACK 31 AUDIO TITLE "Love Is The Way" PERFORMER "Paul Hertzog" REM COMPOSER "Paul Hertzog" INDEX 00 04:32:73FILE "31 Paul Hertzog - Love Is The Way.wav" WAVE INDEX 01 00:00:00
AUDIOCHECKER v1.2 - by Dester - opdester@freemail.hu~~~~~~~~~~~~~~~~~

01 -===- F:\torrent\Kickboxer_Paul Hertzog\score\01 Stan Bush - Streets of Siam.flac Extracted successfully Conclusion: This track looks like CDDA with probability 100%

02 -===- F:\torrent\Kickboxer_Paul Hertzog\score\02 Paul Hertzog - To The Hospital,We'll See.flac Extracted successfully Conclusion: This track looks like CDDA with probability 100%

03 -===- F:\torrent\Kickboxer_Paul Hertzog\score\03 Paul Hertzog - Groceries.flac Extracted successfully Conclusion: This track looks like CDDA with probability 100%

04 -===- F:\torrent\Kickboxer_Paul Hertzog\score\04 Paul Hertzog - Very Stupid.flac Extracted successfully Conclusion: This track looks like CDDA with probability 100%

05 -===- F:\torrent\Kickboxer_Paul Hertzog\score\05 Paul Hertzog - Tai Chi.flac Extracted successfully Conclusion: This track looks like CDDA with probability 100%

06 -===- F:\torrent\Kickboxer_Paul Hertzog\score\06 Paul Hertzog - First Kiss.flac Extracted successfully Conclusion: This track looks like CDDA with probability 99%

07 -===- F:\torrent\Kickboxer_Paul Hertzog\score\07 Paul Hertzog - Stone City.flac Extracted successfully Conclusion: This track looks like CDDA with probability 100%

08 -===- F:\torrent\Kickboxer_Paul Hertzog\score\08 Paul Hertzog - Second Stone.flac Extracted successfully Conclusion: This track looks like CDDA with probability 100%

09 -===- F:\torrent\Kickboxer_Paul Hertzog\score\09 Paul Hertzog - Hospital.flac Extracted successfully Conclusion: This track looks like CDDA with probability 100%

10 -===- F:\torrent\Kickboxer_Paul Hertzog\score\10 Paul Hertzog - Palm Tree.flac Extracted successfully Conclusion: This track looks like CDDA with probability 62%

11 -===- F:\torrent\Kickboxer_Paul Hertzog\score\11 Paul Hertzog - Advanced Training.flac Extracted successfully Conclusion: This track looks like CDDA with probability 100%

12 -===- F:\torrent\Kickboxer_Paul Hertzog\score\12 Paul Hertzog - Ancient Voices.flac Extracted successfully Conclusion: This track looks like CDDA with probability 100%

13 -===- F:\torrent\Kickboxer_Paul Hertzog\score\13 Paul Hertzog - Mylee Is The Way.flac Extracted successfully Conclusion: This track looks like CDDA with probability 100%

14 -===- F:\torrent\Kickboxer_Paul Hertzog\score\14 Paul Hertzog - Warriors.flac Extracted successfully Conclusion: This track looks like CDDA with probability 99%

15 -===- F:\torrent\Kickboxer_Paul Hertzog\score\15 Paul Hertzog - Budda;s Eagle.flac Extracted successfully Conclusion: This track looks like CDDA with probability 100%

16 -===- F:\torrent\Kickboxer_Paul Hertzog\score\16 Paul Hertzog - Kidnap.flac Extracted successfully Conclusion: This track looks like CDDA with probability 100%

17 -===- F:\torrent\Kickboxer_Paul Hertzog\score\17 Paul Hertzog - You've Done It Before.flac Extracted successfully Conclusion: This track looks like CDDA with probability 100%

18 -===- F:\torrent\Kickboxer_Paul Hertzog\score\18 Paul Hertzog - Downstairs.flac Extracted successfully Conclusion: This track looks like CDDA with probability 100%

19 -===- F:\torrent\Kickboxer_Paul Hertzog\score\19 Paul Hertzog - Round One.flac Extracted successfully Conclusion: This track looks like CDDA with probability 100%

20 -===- F:\torrent\Kickboxer_Paul Hertzog\score\20 Paul Hertzog - Round Two.flac Extracted successfully Conclusion: This track looks like CDDA with probability 100%

21 -===- F:\torrent\Kickboxer_Paul Hertzog\score\21 Paul Hertzog - The Hook.flac Extracted successfully Conclusion: This track looks like CDDA with probability 100%

22 -===- F:\torrent\Kickboxer_Paul Hertzog\score\22 Paul Hertzog - Round Three.flac Extracted successfully Conclusion: This track looks like CDDA with probability 100%

23 -===- F:\torrent\Kickboxer_Paul Hertzog\score\23 Paul Hertzog - The Eagle Lands.flac Extracted successfully Conclusion: This track looks like CDDA with probability 100%

24 -===- F:\torrent\Kickboxer_Paul Hertzog\score\24 Stan Bush - Never Surrender.flac Extracted successfully Conclusion: This track looks like CDDA with probability 100%

25 -===- F:\torrent\Kickboxer_Paul Hertzog\score\25 Stan Bush - Fight For Love.flac Extracted successfully Conclusion: This track looks like CDDA with probability 100%

26 -===- F:\torrent\Kickboxer_Paul Hertzog\score\26 Terry Wood - How Do you Keep Me Comin' Back.flac Extracted successfully Conclusion: This track looks like CDDA with probability 100%

27 -===- F:\torrent\Kickboxer_Paul Hertzog\score\27 Jamboxx - Chack's Stew.flac Extracted successfully Conclusion: This track looks like CDDA with probability 100%

28 -===- F:\torrent\Kickboxer_Paul Hertzog\score\28 Michael Logan - Roll With The Punches.flac Extracted successfully Conclusion: This track looks like CDDA with probability 100%

29 -===- F:\torrent\Kickboxer_Paul Hertzog\score\29 Beau Williams - Feeling So Good Today.flac Extracted successfully Conclusion: This track looks like CDDA with probability 100%

30 -===- F:\torrent\Kickboxer_Paul Hertzog\score\30 Paul Hertzog - The Eagle Lands.flac Extracted successfully Conclusion: This track looks like CDDA with probability 99%

31 -===- F:\torrent\Kickboxer_Paul Hertzog\score\31 Paul Hertzog - Love Is The Way.flac Extracted successfully Conclusion: This track looks like MPEG with probability 95%


Трекер:  [ 14-Сен-2017 11:06 ]

  

Скачать .torrent

Размер .torrent файла 16 KB


Размер: 680 MB
Хэш (hash) релиза: c161ff32a1717dfbc3bebbeff12107f59f1d99cf

Еще никто не оставлял запись к записи скачать торрент Кикбоксер Kickboxer - The 2014 Deluxe Edition . Будь первым!

!Обратная связь