Скачать порно через торрент Paul Raymond's Erotica Эротика UnionPeer.org бесплатно онлайн HD качество

Скачать новое порно 2015, 2014 новинки через торрент UnionPeer.org

Порно торрент бесплатно ЮнионПир.орг

Если у вас наблюдаются проблемы со скриншотами, переходом по ссылками, скачиванием торрентов - проблемы в блокировщике рекламы AdBlock. #хорошегоДня!


Статистика раздачи
Размер:  1.37 GB   |    Зарегистрирован:  1 месяц 8 дней   |    .torrent скачан:  409 раз   |   
Раздают:  1  
   
Загрузка...
 
Автор Сообщение

Galfimbul

avatar Galfimbul


Эротика / Paul Raymond's Erotica

Страна: Великобритания
Жанр: Эротика
Год выпуска: 1982
Продолжительность: 01:22:38

Перевод: Одноголосый закадровый [ПРОШУ ОПОЗНАТЬ]
Субтитры: нет
Режиссер: Брайан Смедли-Астон / Brian Smedley-Aston

В ролях: Брижит Лаэ
Диана Кохрэн
Пол Рэймонд
Фэйт Дэйкин
Вики Скотт

Описание: "Paul Raymond's Erotica" mainly documents nude-dancing routines at Raymond's London cabarets in the early '80s; which took the shticks of Paris's Crazy Horse club and turned up the gloss and the explicitness. The women strip out of fancy costumes and perform energetic, athletic moves on stage, some of which seem to be inspired by the disco-aerobics fad. The women dance alone, in groups, and sometimes with nude men. These numbers are interspersed with the story of Brigitte Lahaie as a French reporter learning to become a Raymond dancer-model, and having softcore sex scenes with almost everybody she meets (except Mr. Raymond). One of these scenes, in a sauna, features what might be the first on-screen erection in British film history.

Доп. информация: Оцифровка VHS (личный архив) и получение VHSRip alenavova

Эксклюзив для rutracker.org. При размещении данного релиза на других сайтах ссылка на автора alenavova обязательна.

Релиз

Сэмпл: http://multi-up.com/1168187

Качество видео: VHSRip
Формат видео: AVI

Видео: 704x528 (1.33:1), 25 fps, XviD build 73 ~2166 kbps avg, 0.23 bit/pixel
Аудио: 48 kHz, AC3 Dolby Digital, 2/0 (L,R) ch, ~192 kbps
Эротика - Paul Raymond's Erotica [by alenavova].aviFormat : AVIFormat/Info : Audio Video InterleaveFile size : 1.37 GiBDuration : 1 h 22 minOverall bit rate : 2 368 kb/sMovie name : Эротика - Paul Raymond's Erotica [by alenavova]Director : by alenavovaWriting application : VirtualDubMod 1.5.10.3 | www.virtualdub-fr.org || (build 2550/release)Copyright : Edich2Comment : Rutracker.org

VideoID : 0Format : MPEG-4 VisualFormat profile : Advanced Simple@L5Format settings, BVOP : 2Format settings, QPel : NoFormat settings, GMC : No warppointsFormat settings, Matrix : CustomCodec ID : XVIDCodec ID/Hint : XviDDuration : 1 h 22 minBit rate : 2 167 kb/sWidth : 704 pixelsHeight : 528 pixelsDisplay aspect ratio : 4:3Frame rate : 25.000 FPSColor space : YUVChroma subsampling : 4:2:0Bit depth : 8 bitsScan type : ProgressiveCompression mode : LossyBits/(Pixel*Frame) : 0.233Stream size : 1.25 GiB (91%)Writing library : XviD 73

AudioID : 1Format : AC-3Format/Info : Audio Coding 3Format settings, Endianness : BigCodec ID : 2000Duration : 1 h 22 minBit rate mode : ConstantBit rate : 192 kb/sChannel(s) : 2 channelsChannel positions : Front: L RSampling rate : 48.0 kHzFrame rate : 31.250 FPS (1536 spf)Bit depth : 16 bitsCompression mode : LossyStream size : 113 MiB (8%)Alignment : Split accross interleavesInterleave, duration : 40 ms (1.00 video frame)Interleave, preload duratio : 500 msService kind : Complete Main


Трекер:  [ 14-Сен-2017 03:40 ]

  

Скачать .torrent

Размер .torrent файла 14 KB


Размер: 1.37 GB
Хэш (hash) релиза: 046b156aea11a2e91de648ff83b76278be10229a

Еще никто не оставлял запись к записи скачать торрент Paul Raymond's Erotica Эротика . Будь первым!

!Обратная связь