Скачать через торрент Девы Галилея бесплатно Аниме Все серии на русском torrent

Если у вас наблюдаются проблемы со скриншотами, переходом по ссылками, скачиванием торрентов - проблемы в блокировщике рекламы AdBlock. #хорошегоДня!


Статистика раздачи
Размер:  7.51 GB   |    Зарегистрирован:  6 дней   |    .torrent скачан:  9 раз   |   
Раздают:  2  
   
Загрузка...
 
Автор Сообщение

Galfimbul

avatar Galfimbul


Год выпуска: 2013
Страна: Япония
Жанр: фантастика
Продолжительность: ТВ, 11 эп. по 24 мин.
Выпуск: c 11.10.2013 по 20.12.2013Перевод:

русские субтитры (полные/вспомогательные)
перевод: Holydarkness, Asca, редактура: Nesitach, Stan WarHammer

Режиссер: Умэцу Ясуоми
Студия: A-1 Pictures Inc.Описание:
В альтернативном мире начался новый ледниковый период, и даже солнечную Тоскану запорошило снегом. Но не это главная проблема трех сестер Феррари, которых в один прекрасный день попытались похитить. Старшая сестра Хадзуки, умерено пьющая 20-летняя студентка юрфака, и сама не поняла, как выкрутилась; средняя, 17-летняя Кадзуки, спокойная и нелюдимая спортсменка, просто врезала напавшему «с ноги», ну а младшая, 13-летняя Ходзуки, ухитрилась разобраться с боевым роботом, правда, мелким. Увы, похитители явились вновь и на этот раз озвучили японо-итальянскому трио, что ищут некое «сокровище Галилея», про которое сестры обязаны знать – все-таки прямые потомки великого ученого!

Слухи о наследстве «отца науки» встревожили корпорацию «Адни Мун», монополиста мировой энергетики. Большие боссы твердо решили прояснить вопрос: успевшие бежать сестры объявлены преступницами, против них брошены полиция и спецслужбы, по следу пущены опытные наемники. Что могут противопоставить такой силе бедные девушки? Во-первых, технический гений юной Ходзуки, достойной продолжательницы традиций мастера из Пизы. Во-вторых, знания и энергию примкнувшей к ним Анны Хендрикс, опытной авантюристки с тяжким случаем «галилеомании». Ну и, в-третьих, своеобразную дружбу с веселыми воздушными пиратами, которым сам черт не брат. Теперь-то «код Галилея» точно не устоит!
© Hollow, World ArtИнформационные ссылки: AniDB || World Art || MALКачество: BDRip
Энкод: Winter - RG Pantheon
Тип видео: без хардсаба, без линковки
Формат: mkv
Видео: x264 (Hi10p), 1280x720, ~3300 Kbps, 23.976 fps
Аудио JAP: Vorbis, 48000Hz, ~256 Kbps, 2ch
Аудио RUS 1-3: AC3, 48000Hz, ~192Kbps, 2ch (внешними файлами)
двухголосая (ж/м) от Eladiel & Zendos (Onibaku)
двухголосая (м/ж) от Соловей & Lamia (OpenDub)
двухголосая (м/ж) от NikaLenina & Trina_D & Shina & JAM & BalFor & Cuba77 (AniDub)
01. Galileo DNA
02. Messier
03. Goldfish Life
04. Snow Gift
05. Constellatory Dreams
06. Galileo Tesoro
07. Salt Fish
08. Giappone
09. Space-Time Goldfish (Part 1)
10. Space-Time Goldfish (Part 2)
11. Galileo Judge
...5343219
...5439326
...5380351
- 720p
...4564908
...4575426
...4566418
- BDRip
Общее
Уникальный идентификатор : 244250059780479671369757454858724993252 (0xB7C0D9B423B2CD888C1A59F8F73668E4)
Полное имя : T:\Anime\720p\Galilei Donna [BD] [720p]\[W] Galilei Donna 02 [BDrip 1280x720 x264 Vorbis].mkv
Формат : Matroska
Версия формата : Version 2
Размер файла : 596 Мбайт
Продолжительность : 22 м. 51 с.
Режим общего битрейта : Переменный
Общий поток : 3643 Кбит/сек
Дата кодирования : UTC 2017-07-14 18:13:15
Программа кодирования : mkvmerge v2.9.8 ('C'est le bon') built on Aug 13 2009 12:49:06
Библиотека кодирования : libebml v0.7.7 + libmatroska v0.8.1

Видео
Идентификатор : 1
Формат : AVC
Формат/Информация : Advanced Video Codec
Профиль формата : High 10@L4.1
Параметр CABAC формата : Да
Параметр RefFrames формата : 9 кадров
Идентификатор кодека : V_MPEG4/ISO/AVC
Продолжительность : 22 м. 51 с.
Битрейт : 3314 Кбит/сек
Ширина : 1280 пикселей
Высота : 720 пикселей
Соотношение сторон : 16:9
Режим частоты кадров : Постоянный
Частота кадров : 23,976 (24000/1001) кадра/сек
Цветовое пространство : YUV
Субдискретизация насыщенности : 4:2:0
Битовая глубина : 10 бит
Тип развёртки : Прогрессивная
Бит/(Пиксели*Кадры) : 0.150
Размер потока : 542 Мбайт (91%)
Библиотека кодирования : x264 core 148 r2694 3b70645
Настройки программы : cabac=1 / ref=9 / deblock=1:-2:-2 / analyse=0x3:0x133 / me=umh / subme=9 / psy=1 / psy_rd=0.90:0.00 / mixed_ref=1 / me_range=24 / chroma_me=1 / trellis=2 / 8x8dct=1 / cqm=0 / deadzone=21,11 / fast_pskip=1 / chroma_qp_offset=-2 / threads=12 / lookahead_threads=2 / sliced_threads=0 / nr=0 / decimate=0 / interlaced=0 / bluray_compat=0 / constrained_intra=0 / bframes=8 / b_pyramid=2 / b_adapt=2 / b_bias=0 / direct=1 / weightb=1 / open_gop=0 / weightp=2 / keyint=250 / keyint_min=23 / scenecut=40 / intra_refresh=0 / rc=crf / mbtree=0 / crf=15.7 / qcomp=0.70 / qpmin=9 / qpmax=40 / qpstep=4 / ip_ratio=1.40 / pb_ratio=1.30 / aq=1:0.90
Default : Нет
Forced : Нет

Аудио
Идентификатор : 2
Формат : Vorbis
Параметр Floor формата : 1
Идентификатор кодека : A_VORBIS
Продолжительность : 22 м. 51 с.
Вид битрейта : Переменный
Битрейт : 256 Кбит/сек
Каналы : 2 канала
Частота : 48,0 КГц
BitDepth_Detected/String : 24 бит
Метод сжатия : С потерями
Размер потока : 41,9 Мбайт (7%)
Библиотека кодирования : libVorbis (??] (20150105 (??])
Язык : Japanese
Default : Да
Forced : Нет
Выбор видео, перевода, озвучки, а также типа сборки материала осуществляется релизером и не подлежит обсуждению. Если вы считаете, что раздаваемый материал противоречит правилам раздела "Аниме" rutracker.org, сообщите об этом одному из модераторов раздела.

В случае появления нового материала или же лучшего по качеству материала релизер оставляет за собой право обновить раздачу. В этом случае вам необходимо ознакомиться с изменениями (добавлениями) и перекачать торрент.

Данный релиз предназначен для просмотра на ПК. Воспроизведение на иных проигрывателях не гарантируется. Для просмотра рекомендуется Media Player Classic с установленным пакетом кодеков K-Lite.

Данный релиз содержит 10-битное видео (Hi10p). Для корректного воспроизведения обязательно используйте кодеки, поддерживающие 10-битное видео.
Обсудить частные случаи проблем с воспроизведением и получить дополнительную информацию можно здесь.

Данный релиз предназначен для просмотра с внешними субтитрами и внешними звуковыми дорожками.

Для просмотра с внешней звуковой дорожкой нужно:
перекинуть файлы .mka из папки "RUS Sound [<автор(ы) озвучки>]" в одну папку с видео и переключить звуковую дорожку в плеере при просмотре. Как это сделать в разных плеерах подробно описано здесь.
Для просмотра с субтитрами нужно:
перекинуть файлы .ass из папки "RUS Subtitles [<автор(ы) перевода>]" в одну папку с видео - плеер подгрузит их автоматически при открытии видео.

Если у вас возникли проблемы с просмотром, не связанные с описанным выше, сообщите о них автору раздачи посредством сообщения в теме или ЛС Aglenn.


Трекер:  [ 14-Сен-2017 00:01 ]

  

Скачать .torrent

Размер .torrent файла 45 KB


Размер: 7.51 GB
Хэш (hash) релиза: fcf2f40bdd9d3ae8733556be3dc2414a2407c988
Подписка на обновления:

Торренты, похожие на Девы Галилея скачать торрент

Форум Название Автор Размер S L Добавлен
Аниме | HD Rips ·· Девы Галилея (ТВ) / Galilei Donna / Наследие Галилео / История трёх сестёр [TV] [11 из 11] [Без хардсаба] [RUS(ext), JAP, SUB] [2013, приключения, фантастика, BDRip] [1080p] Galfimbul 2309196355621.51 GB 0 0 1502434921

10:02

11-Авг-17

Еще никто не оставлял запись к записи скачать торрент Девы Галилея . Будь первым!

!Обратная связь