Скачать через торрент US Open 2017 Best Of Фильм бесплатно в хорошем качестве torrent

Скачивайте на UnionPeer.org фильмы через торрент без регистрации. Новинки кино в хорошем качестве через торрент. На UnionPeer.org можно скачать через торрент фильмы 2014 и 2015 годов. Самые новые фильмы.

Скачать торрент US Open 2017 Best Of бесплатно через .torrent фильм мультфильм сериал

Если у вас наблюдаются проблемы со скриншотами, переходом по ссылками, скачиванием торрентов - проблемы в блокировщике рекламы AdBlock. #хорошегоДня!


Статистика раздачи
Размер:  3.25 GB   |    Зарегистрирован:  2 месяца 11 дней   |    .torrent скачан:  0 раз   |   
Раздают:  1  
   
Загрузка...
 
Автор Сообщение

Galfimbul

avatar Galfimbul


US Open 2017: Избранное. Итоговый обзор турнира

Дата эфира: 13.09.2017
Вид спорта: Теннис
Комментарий: Профессиональный
Язык комментариев: Русский
Продолжительность: 00:48:55Описание: Итоговая обзорная программа US Open 2017. Лучшие мировые теннисисты, лучшие матчи турнира, лучшие розыгрыши. Все сенсации, победы и поражения.Автор рипа: рутрекер.орг

Качество: HDTV
Формат: TS
Видео кодек: AVC
Аудио кодек: MP2
Видео: MPEG4 Video (H264) 1920x1080 (16:9) 25fps 8656kbps
Аудио: MPEG Audio 48000Hz stereo 192kbps
GeneralID : 1 (0x1)Complete name : W:\раздачи\US Open 2017. Избранное. Итоги турнира. Очень злобный.tsFormat : MPEG-TSFile size : 3.25 GiBDuration : 48 min 55 sOverall bit rate mode : VariableOverall bit rate : 9 514 kb/s

VideoID : 307 (0x133)Menu ID : 17107 (0x42D3)Format : AVCFormat/Info : Advanced Video CodecFormat profile : High@L4Format settings, CABAC : YesFormat settings, RefFrames : 4 framesCodec ID : 27Duration : 48 min 55 sBit rate : 8 656 kb/sWidth : 1 920 pixelsHeight : 1 080 pixelsDisplay aspect ratio : 16:9Frame rate : 25.000 FPSStandard : ComponentColor space : YUVChroma subsampling : 4:2:0Bit depth : 8 bitsScan type : InterlacedScan type, store method : Separated fieldsScan order : Top Field FirstBits/(Pixel*Frame) : 0.167Stream size : 2.96 GiB (91%)Color range : LimitedColor primaries : BT.709Transfer characteristics : BT.709Matrix coefficients : BT.709

Audio #1ID : 407 (0x197)Menu ID : 17107 (0x42D3)Format : MPEG AudioFormat version : Version 1Format profile : Layer 2Codec ID : 3Duration : 48 min 55 sBit rate mode : ConstantBit rate : 192 kb/sChannel(s) : 2 channelsSampling rate : 48.0 kHzCompression mode : LossyDelay relative to video : -40 msStream size : 67.2 MiB (2%)Language : Russian

Audio #2ID : 408 (0x198)Menu ID : 17107 (0x42D3)Format : MPEG AudioFormat version : Version 1Format profile : Layer 2Codec ID : 3Duration : 48 min 55 sBit rate mode : ConstantBit rate : 192 kb/sChannel(s) : 2 channelsSampling rate : 48.0 kHzCompression mode : LossyDelay relative to video : -40 msStream size : 67.2 MiB (2%)Language : English
* За внезапно возникшие жеппы вместо нормальных скриншотов ответственность не несу.

Трекер:  [ 13-Сен-2017 23:42 ]

  

Скачать .torrent

Размер .torrent файла 16 KB


Размер: 3.25 GB
Хэш (hash) релиза: 7264c22cd29ad79eb5c01ccd59982a5bc81222e7
Подписка на обновления:

Еще никто не оставлял запись к записи скачать торрент US Open 2017 Best Of . Будь первым!

!Обратная связь