Скачать через торрент Формула 1. Сезон 2017. Этап 14. Гран-при Сингапура. Weekend On Sky Sports F1 HD Фильм бесплатно в хорошем качестве torrent

Скачивайте на UnionPeer.org фильмы через торрент без регистрации. Новинки кино в хорошем качестве через торрент. На UnionPeer.org можно скачать через торрент фильмы 2014 и 2015 годов. Самые новые фильмы.

Скачать торрент Формула 1. Сезон 2017. Этап 14. Гран-при Сингапура. Weekend On Sky Sports F1 HD бесплатно через .torrent фильм мультфильм сериал

Если у вас наблюдаются проблемы со скриншотами, переходом по ссылками, скачиванием торрентов - проблемы в блокировщике рекламы AdBlock. #хорошегоДня!


Статистика раздачи
Размер:  1.64 GB   |    Зарегистрирован:  2 месяца 11 дней   |    .torrent скачан:  1 раз   |   
Раздают:  1  
   
Загрузка...
 
Автор Сообщение

Galfimbul

avatar Galfimbul


Формула 1. Сезон 2017. Этап 14. Гран-при Сингапура. Weekend On Sky Sports F1 HD

Вид спорта: Формула 1
Язык комментариев:Английский
Автор рипа/записи: Ales
Качество: ΙPTV
Формат видео: MKV
Видео: H264, 1920X1080p, 25 кадр/c, 5 068 kb/s
Аудио: AAC 2.0, 48.0 KHz, 128 kb/s Английский
Субтитры: Английский
Дата/Год выпуска: 13.09.2017
<div class="sp-wrap">
<div class="sp-head folded">Продолжительность</div>
<div class="sp-body">0:23:01
GeneralUnique ID : 206214031530883533009395815840410509867 (0x9B2360B952D99AA787E6B006ACC8222B)Complete name : K:\F12017\14.SIN\F1.2017.R14.Singapore.Grand.Prix.Weekend.SkyF1HD.1080P\01.F1.2017.R14.Singapore.Grand.Prix.Inside.Line.SkyF1HD.1080P.mkvFormat : MatroskaFormat version : Version 4 / Version 2File size : 799 MiBDuration : 23 min 1 sOverall bit rate : 4 851 kb/sEncoded date : UTC 2017-09-13 20:41:54Writing application : mkvmerge v11.0.0 ('Alive') 64bitWriting library : libebml v1.3.4 + libmatroska v1.4.5

VideoID : 1Format : AVCFormat/Info : Advanced Video CodecFormat profile : High@L4Format settings, CABAC : YesFormat settings, RefFrames : 4 framesCodec ID : V_MPEG4/ISO/AVCDuration : 23 min 1 sBit rate : 4 720 kb/sWidth : 1 920 pixelsHeight : 1 080 pixelsDisplay aspect ratio : 16:9Frame rate mode : ConstantFrame rate : 25.000 FPSColor space : YUVChroma subsampling : 4:2:0Bit depth : 8 bitsScan type : ProgressiveBits/(Pixel*Frame) : 0.091Stream size : 777 MiB (97%)Default : YesForced : No

AudioID : 2Format : AACFormat/Info : Advanced Audio CodecFormat profile : LCCodec ID : A_AACDuration : 23 min 1 sBit rate : 129 kb/sChannel(s) : 2 channelsChannel positions : Front: L RSampling rate : 48.0 kHzFrame rate : 46.875 FPS (1024 SPF)Compression mode : LossyDelay relative to video : -19 msStream size : 21.2 MiB (3%)Language : EnglishDefault : YesForced : No

TextID : 3Format : UTF-8Codec ID : S_TEXT/UTF8Codec ID/Info : UTF-8 Plain TextBit rate : 0 b/sCount of elements : 0Stream size : 0.00 Byte (0%)Language : EnglishDefault : YesForced : No
</div>
</div>
Дата/Год выпуска: 13.09.2017
<div class="sp-wrap">
<div class="sp-head folded">Продолжительность</div>
<div class="sp-body">0:23:59
GeneralUnique ID : 190195389245400083450022703810269169504 (0x8F164CAEDD2392B6987600F905CC4760)Complete name : K:\F12017\14.SIN\F1.2017.R14.Singapore.Grand.Prix.Weekend.SkyF1HD.1080P\02.F1.2017.R14.Singapore.Grand.Prix.F1.Report.SkyF1HD.1080P.mkvFormat : MatroskaFormat version : Version 4 / Version 2File size : 881 MiBDuration : 23 min 59 sOverall bit rate : 5 134 kb/sEncoded date : UTC 2017-09-13 20:46:27Writing application : mkvmerge v11.0.0 ('Alive') 64bitWriting library : libebml v1.3.4 + libmatroska v1.4.5

VideoID : 1Format : AVCFormat/Info : Advanced Video CodecFormat profile : High@L4Format settings, CABAC : YesFormat settings, RefFrames : 4 framesCodec ID : V_MPEG4/ISO/AVCDuration : 23 min 59 sBit rate : 5 001 kb/sWidth : 1 920 pixelsHeight : 1 080 pixelsDisplay aspect ratio : 16:9Frame rate mode : ConstantFrame rate : 25.000 FPSColor space : YUVChroma subsampling : 4:2:0Bit depth : 8 bitsScan type : ProgressiveBits/(Pixel*Frame) : 0.096Stream size : 858 MiB (97%)Default : YesForced : No

AudioID : 2Format : AACFormat/Info : Advanced Audio CodecFormat profile : LCCodec ID : A_AACDuration : 23 min 59 sBit rate : 129 kb/sChannel(s) : 2 channelsChannel positions : Front: L RSampling rate : 48.0 kHzFrame rate : 46.875 FPS (1024 SPF)Compression mode : LossyDelay relative to video : -9 msStream size : 22.1 MiB (3%)Language : EnglishDefault : YesForced : No

TextID : 3Format : UTF-8Codec ID : S_TEXT/UTF8Codec ID/Info : UTF-8 Plain TextDuration : 23 min 53 sBit rate : 945 b/sCount of elements : 3103Stream size : 165 KiB (0%)Language : EnglishDefault : YesForced : No
</div>
</div>

Трекер:  [ 13-Сен-2017 23:42 ]

  

Скачать .torrent

Размер .torrent файла 34 KB


Размер: 1.64 GB
Хэш (hash) релиза: 4c83313f5e11ba07504ebec49ea635698175bd83
Подписка на обновления:

Еще никто не оставлял запись к записи скачать торрент Формула 1. Сезон 2017. Этап 14. Гран-при Сингапура. Weekend On Sky Sports F1 HD . Будь первым!

!Обратная связь