Скачать через торрент Ганнибал: Восхождение Hannibal Rising Фильм бесплатно в хорошем качестве torrent

Скачивайте на UnionPeer.org фильмы через торрент без регистрации. Новинки кино в хорошем качестве через торрент. На UnionPeer.org можно скачать через торрент фильмы 2014 и 2015 годов. Самые новые фильмы.

Скачать торрент Ганнибал: Восхождение Hannibal Rising бесплатно через .torrent фильм мультфильм сериал

Если у вас наблюдаются проблемы со скриншотами, переходом по ссылками, скачиванием торрентов - проблемы в блокировщике рекламы AdBlock. #хорошегоДня!


Статистика раздачи
Размер:  12.07 GB   |    Зарегистрирован:  2 месяца 11 дней   |    .torrent скачан:  7 раз   |   
Раздают:  1  
   
Загрузка...
 
Автор Сообщение

Galfimbul

avatar Galfimbul


[Часть 1] [Часть 2] [Часть 3] [Часть 4]Ганнибал: Восхождение / Hannibal Rising (Unrated)

Год выпуска: 2007
Страна: США, Франция, Великобритания, Италия, Чехия
Жанр: ужасы, триллер, драма
Продолжительность: 2:10:27
Перевод: Профессиональный (многоголосый закадровый)
Русские субтитры: есть

Режиссер: Питер Веббер

В ролях: Гаспар Улье, Риз Айфэнс, Ричард Брэйк, Ингеборга Дапкунайте, Аарон Томас, Helena Lia Tachovska, Ричард Лиф, Мишель Вэйд, Martin Hub, Joerg Stadler

Описание: Первая глава жизни самого знаменитого и хитроумного маньяка всех времен… Ему было шесть, когда на его глазах жестоко убили его семью. В двадцать, бежав во Францию, а затем в США, он получил блестящее образование психиатра. Впереди его ждала жизнь, полная привилегий. Но жажда мести за убийство семьи только разгоралась в нем…

Доп. информация: CtrlHD

iMDB: 6.0/10 (18,788 votes)

Качество: BD Rip
Формат: MKV
Видео кодек: H.26x
Аудио кодек: AC3
Видео: 1920x816, 23.976 fps, MPEG-4 AVC, 10515 kbps VBR
Аудио#1: Русский: DD 5.1 (AC3), 48 kHz, 448 kbps avg
Аудио#2: Русский: DTS 5.1 (DTS), 48 kHz, 768 kbps avg (одноголосый закадровый, Рябов)
Аудио#3: Английский: DTS 5.1 (DTS), 48 kHz, 1536 kbps avg
Субтитры: Rus, Eng (VobSub)
Общее
Уникальный идентификатор : 230762230644593956647130929739410059862 (0xAD9B3062838A488DB6F6C721FC4E3256)
Полное имя : W:\12345\Hannibal Rising UNRATED 2007.BDRip.1080p.x264.Rus.Eng.mkv
Формат : Matroska
Версия формата : Version 1
Размер файла : 12,1 Гбайт
Продолжительность : 2 ч. 10 м.
Общий поток : 13,2 Мбит/сек
Название фильма : Hannibal Rising UNRATED 2007
Дата кодирования : UTC 2008-06-24 19:52:33
Программа кодирования : mkvmerge v2.2.0 ('Turn It On Again') built on Apr 14 2008 23:34:53
Библиотека кодирования : libebml v0.7.7 + libmatroska v0.8.1

Видео
Идентификатор : 1
Формат : AVC
Формат/Информация : Advanced Video Codec
Профиль формата : High@L5.1
Параметр CABAC формата : Да
Параметр ReFrames формата : 8 кадров
Идентификатор кодека : V_MPEG4/ISO/AVC
Продолжительность : 2 ч. 10 м.
Битрейт : 10,3 Мбит/сек
Ширина : 1920 пикселей
Высота : 816 пикселей
Соотношение сторон : 2,35:1
Режим частоты кадров : Постоянный
Частота кадров : 23,976 кадра/сек
Цветовое пространство : YUV
Субдискретизация насыщенности : 4:2:0
Битовая глубина : 8 бит
Тип развёртки : Прогрессивная
Бит/(Пиксели*Кадры) : 0.273
Размер потока : 9,36 Гбайт (78%)
Библиотека кодирования : x264 core 57 svn-709C
Настройки программы : cabac=1 / ref=5 / deblock=1:-3:-3 / analyse=0x3:0x133 / me=umh / fpel_cmp=sad / subme=6 / me-prepass=0 / brdo=1 / mixed_ref=1 / me_range=24 / chroma_me=1 / trellis=0 / 8x8dct=1 / cqm=2 / deadzone=6,4 / chroma_qp_offset=0 / threads=6 / nr=0 / decimate=0 / mbaff=0 / bframes=3 / b_pyramid=1 / b_adapt=1 / b_bias=0 / direct=3 / wpredb=1 / bime=1 / keyint=250 / keyint_min=25 / scenecut=40(pre) / rc=crf / crf=19.0 / rceq='blurCplx^(1-qComp)' / qcomp=0.60 / qpmin=10 / qpmax=51 / qpstep=4 / ip_ratio=1.40 / pb_ratio=1.30 / aq=1:0.3:12.0
Язык : English
Default : Да
Forced : Нет

Аудио #1
Идентификатор : 2
Формат : AC-3
Формат/Информация : Audio Coding 3
Параметр Endianness формата : Big
Идентификатор кодека : A_AC3
Продолжительность : 2 ч. 10 м.
Вид битрейта : Постоянный
Битрейт : 448 Кбит/сек
Каналы : 6 каналов
Расположение каналов : Front: L C R, Side: L R, LFE
Частота : 48,0 КГц
Частота кадров : 31,250 кадров/сек (1536 spf)
Битовая глубина : 16 бит
Метод сжатия : С потерями
Размер потока : 418 Мбайт (3%)
Язык : Russian
ServiceKind/String : Complete Main
Default : Да
Forced : Нет

Аудио #2
Идентификатор : 3
Формат : DTS
Формат/Информация : Digital Theater Systems
Режим : 16
Параметр Endianness формата : Big
Идентификатор кодека : A_DTS
Продолжительность : 2 ч. 10 м.
Вид битрейта : Постоянный
Битрейт : 755 Кбит/сек
Каналы : 6 каналов
Расположение каналов : Front: L C R, Side: L R, LFE
Частота : 48,0 КГц
Частота кадров : 93,750 кадра/сек (512 spf)
Битовая глубина : 24 бит
Метод сжатия : С потерями
Размер потока : 705 Мбайт (6%)
Язык : Russian
Default : Нет
Forced : Нет

Аудио #3
Идентификатор : 4
Формат : DTS
Формат/Информация : Digital Theater Systems
Режим : 16
Параметр Endianness формата : Big
Идентификатор кодека : A_DTS
Продолжительность : 2 ч. 10 м.
Вид битрейта : Постоянный
Битрейт : 1509 Кбит/сек
Каналы : 6 каналов
Расположение каналов : Front: L C R, Side: L R, LFE
Частота : 48,0 КГц
Частота кадров : 93,750 кадра/сек (512 spf)
Битовая глубина : 24 бит
Метод сжатия : С потерями
Размер потока : 1,38 Гбайт (11%)
Язык : English
Default : Нет
Forced : Нет

Текст #1
Идентификатор : 5
Формат : UTF-8
Идентификатор кодека : S_TEXT/UTF8
Идентификатор кодека/Информация : UTF-8 Plain Text
Default : Да
Forced : Нет

Текст #2
Идентификатор : 6
Формат : VobSub
Режим смешивания : zlib
Идентификатор кодека : S_VOBSUB
Идентификатор кодека/Информация : Picture based subtitle format used on DVDs
Язык : Russian
Default : Нет
Forced : Нет

Текст #3
Идентификатор : 7
Формат : VobSub
Режим смешивания : zlib
Идентификатор кодека : S_VOBSUB
Идентификатор кодека/Информация : Picture based subtitle format used on DVDs
Язык : English
Default : Нет
Forced : Нет


Трекер:  [ 13-Сен-2017 23:30 ]

  

Скачать .torrent

Размер .torrent файла 61 KB


Размер: 12.07 GB
Хэш (hash) релиза: 2cca0897b3e909a924cd10c7c32a21c4e59d8513
Подписка на обновления:

Торренты, похожие на Ганнибал: Восхождение Hannibal Rising скачать торрент

Форум Название Автор Размер S L Добавлен
Зарубежные фильмы до 2016 ·· Ганнибал: Восхождение / Hannibal Rising (Питер Веббер) [720p/DVD9] [2007, ужасы, триллер, драма, BD Rip] Galfimbul 81343205497.58 GB 0 0 1495375462

17:04

21-Май-17

Зарубежные фильмы до 2016 ·· Ганнибал: Восхождение / Hannibal Rising (Питер Веббер / Peter Webber) [2007, ужасы, триллер, драма, HDTVRip 720p] [Unrated] MVO + AVO (Рябов) + Original Eng Galfimbul 58677895635.46 GB 0 0 1495035052

18:30

17-Май-17

Зарубежные фильмы до 2016 ·· Ганнибал: Восхождение / Hannibal Rising (Питер Веббер / Peter Webbe) [2007, Франция, Великобритания, Италия, Чехия, Триллер, драма, криминал, HDTVRip] [Театральная версия / Theatrical Cut] Dub L 784433152748 MB 0 0 1322568089

15:01

29-Ноя-11

Зарубежные фильмы до 2016 ·· Ганнибал: Восхождение / Hannibal Rising (Питер Веббер) [1080p] [2007 г., ужасы, триллер, драма, BD Remux] Captain Claw 1883984975417.55 GB 0 0 1295729332

23:48

22-Янв-11

Зарубежные фильмы до 2016 ·· Ганнибал: Восхождение / Hannibal Rising (Питер Веббер) [1080p] [2007 г., ужасы, триллер, драма, BD Rip] L 1295795264812.07 GB 0 0 1295725911

22:51

22-Янв-11

Зарубежные фильмы до 2016 ·· Ганнибал: Восхождение / Hannibal Rising (Питер Веббер / Peter Webber) [2007 г., Ужасы, Триллер, Драма, HDRip] [Unrated] MVO Bot 15627304961.46 GB 0 0 1287688172

22:09

21-Окт-10

Еще никто не оставлял запись к записи скачать торрент Ганнибал: Восхождение Hannibal Rising . Будь первым!

!Обратная связь