Скачать через торрент Баскетбол Чемпионат Европы-2017 Фильм бесплатно в хорошем качестве torrent

Скачивайте на UnionPeer.org фильмы через торрент без регистрации. Новинки кино в хорошем качестве через торрент. На UnionPeer.org можно скачать через торрент фильмы 2014 и 2015 годов. Самые новые фильмы.

Скачать торрент Баскетбол Чемпионат Европы-2017 бесплатно через .torrent фильм мультфильм сериал

Если у вас наблюдаются проблемы со скриншотами, переходом по ссылками, скачиванием торрентов - проблемы в блокировщике рекламы AdBlock. #хорошегоДня!


Статистика раздачи
Размер:  9.06 GB   |    Зарегистрирован:  6 дней   |    .torrent скачан:  0 раз   |   
Раздают:  1  
   
Загрузка...
 
Автор Сообщение

Galfimbul

avatar Galfimbul


Чемпионат Европы-2017 / Мужчины / 1/4 Финала / Греция - Россия

Вид спорта: Баскетбол
Дата/Год выпуска: 13.09.2017
Язык комментариев: Русский
Комментаторы: А. Беляев

Описание: 13 сентября 2017 года, среда. 18:45 МСК
Стадион: Синан Эрдем Доум (Стамбул, Турция), вместимость: 16000
Плей-офф. 1/4. Греция - Россия
Судьи: Луис Роберто Васкес (Пуэрто-Рико), Саверио Ланцарини (Италия), Йоанн Россо (Франция)

Доп. информация:

Автор рипа/записи: SLuMeP


Качество видео: HDTV 1080i
Контейнер: TS

Видео: H264, 1920x1080 (16:9), 25 fps, 11200 Kbps
Аудио 1: AC3, 2 сh, 48 kHz, 448 kbps (рус)
Аудио 2: MPEG Audio, 2 сh, 48 kHz, 192 kbps (рус)
D:\Баскетбол.Евро-2017. Греция - Россия. (13.09.2017)_DVB by SLuMeP.ts
General #1
ID : 1 (0x1)
Complete name : D:\Баскетбол.Евро-2017. Греция - Россия. (13.09.2017)_DVB by SLuMeP.ts
Format : MPEG-TS
File size : 9.06 GiB
Duration : 1h 43mn
Overall bit rate mode : Variable
Overall bit rate : 12.5 Mbps

Video #2311
ID : 2311 (0x907)
Menu ID : 311 (0x137)
Format : AVC
Format/Info : Advanced Video Codec
Format profile : High@L4.0
Format settings, CABAC : Yes
Format settings, ReFrames : 4 frames
Format settings, GOP : M=4, N=28
Codec ID : 27
Duration : 1h 43mn
Bit rate : 11.2 Mbps
Width : 1 920 pixels
Height : 1 080 pixels
Display aspect ratio : 16:9
Frame rate : 25.000 fps
Standard : Component
Color space : YUV
Chroma subsampling : 4:2:0
Bit depth : 8 bits
Scan type : Interlaced
Scan order : Top Field First
Bits/(Pixel*Frame) : 0.217
Stream size : 8.14 GiB (90%)
Color primaries : BT.709
Transfer characteristics : BT.709
Matrix coefficients : BT.709

Audio #3311
ID : 3311 (0xCEF)
Menu ID : 311 (0x137)
Format : AC-3
Format/Info : Audio Coding 3
Mode extension : CM (complete main)
Format settings, Endianness : Big
Codec ID : 6
Duration : 1h 43mn
Bit rate mode : Constant
Bit rate : 448 Kbps
Channel(s) : 2 channels
Channel positions : Front: L R
Sampling rate : 48.0 KHz
Bit depth : 16 bits
Compression mode : Lossy
Stream size : 332 MiB (4%)
Language : Russian

Audio #3312
ID : 3312 (0xCF0)
Menu ID : 311 (0x137)
Format : MPEG Audio
Format version : Version 1
Format profile : Layer 2
Codec ID : 3
Duration : 1h 43mn
Bit rate mode : Constant
Bit rate : 192 Kbps
Channel(s) : 2 channels
Sampling rate : 48.0 KHz
Compression mode : Lossy
Stream size : 142 MiB (2%)
Language : Russian
01:43:40
<div class="sp-wrap">
<div class="sp-head folded">скрытый текст</div>
<div class="sp-body">
<div class="sp-wrap">
<div class="sp-head folded">скрытый текст</div>
<div class="sp-body">69-74
</div>
</div>
</div>
</div>

Трекер:  [ 13-Сен-2017 21:18 ]

  

Скачать .torrent

Размер .torrent файла 46 KB


Размер: 9.06 GB
Хэш (hash) релиза: 25dc2574d30d7caca99c4d7ec9c3495638878b90
Подписка на обновления:

Еще никто не оставлял запись к записи скачать торрент Баскетбол Чемпионат Европы-2017 . Будь первым!

!Обратная связь