Скачать через торрент Защитники Marvels The Defenders Фильм бесплатно в хорошем качестве torrent

Скачивайте на UnionPeer.org фильмы через торрент без регистрации. Новинки кино в хорошем качестве через торрент. На UnionPeer.org можно скачать через торрент фильмы 2014 и 2015 годов. Самые новые фильмы.

Скачать торрент Защитники Marvels The Defenders бесплатно через .torrent фильм мультфильм сериал

Если у вас наблюдаются проблемы со скриншотами, переходом по ссылками, скачиванием торрентов - проблемы в блокировщике рекламы AdBlock. #хорошегоДня!


Статистика раздачи
Размер:  29.62 GB   |    Зарегистрирован:  2 месяца 10 дней   |    .torrent скачан:  9 раз   |   
Раздают:  1  
   
Загрузка...
 
Автор Сообщение

Galfimbul

avatar Galfimbul


Защитники / Marvel's The Defenders

Год выпуска: 2017
Страна: США
Жанр: Фантастика, боевик, криминал, приключения
Продолжительность: ~ 00:45:00

Перевод: Профессиональный многоголосый закадровый (AMS)

Режиссёр: С.Дж. Кларксон, Фил Абрахам, Фэррен Блэкберн

В ролях: Чарли Кокс, Кристен Риттер, Майк Колтер, Финн Джонс, Элоди Юнг, Джессика Хенвик, Скотт Гленн, Сигурни Уивер, Вэй Чинг Хо, Элден Хенсон и другие

Описание:
Сорвиголова, Джессика Джонс, Люк Кейдж и Железный Кулак объединяются для борьбы с преступностью Нью-Йорка.

/ Сэмпл

Качество: WEBRip 720p
Контейнер: MKV

Видео: MPEG-4 AVC, 1280x720, 16:9, ~10.2 Мбит/с, 23.976 fps, ~0.462 bit/pixel
Аудио 1: Русский, AC3, 48.0 KHz, 6 channels, 384 Kbps
Аудио 2: Английский, AC3, 48.0 KHz, 6 channels, 384 Kbps
Субтитры: Английские (softsub SRT)
General
Unique ID : 125620262696914149313877636395354746975 (0x5E81952252B1B2C63564763E2176F05F)
Complete name : /Marvels.The.Defenders.S01.720p.WEBRip.AMS/Marvels.The.Defenders.S01E01.720p.WEBRip.AMS.mkv
Format : Matroska
Format version : Version 4 / Version 2
File size : 3.96 GiB
Duration : 51mn 43s
Overall bit rate : 11.0 Mbps
Encoded date : UTC 2017-09-04 11:13:23
Writing application : mkvmerge v8.2.0 ('World of Adventure') 64bit
Writing library : libebml v1.3.1 + libmatroska v1.4.2

Video
ID : 1
Format : AVC
Format/Info : Advanced Video Codec
Format profile : High@L4.1
Format settings, CABAC : Yes
Format settings, ReFrames : 9 frames
Codec ID : V_MPEG4/ISO/AVC
Duration : 51mn 43s
Bit rate : 10.2 Mbps
Width : 1 280 pixels
Height : 720 pixels
Display aspect ratio : 16:9
Frame rate mode : Constant
Frame rate : 23.976 (24000/1001) fps
Color space : YUV
Chroma subsampling : 4:2:0
Bit depth : 8 bits
Scan type : Progressive
Bits/(Pixel*Frame) : 0.462
Stream size : 3.68 GiB (93%)
Writing library : x264 core 144 r2525 40bb568
Encoding settings : cabac=1 / ref=9 / deblock=1:-3:-3 / analyse=0x3:0x133 / me=umh / subme=10 / psy=1 / psy_rd=1.00:0.00 / mixed_ref=1 / me_range=48 / chroma_me=1 / trellis=2 / 8x8dct=1 / cqm=0 / deadzone=21,11 / fast_pskip=0 / chroma_qp_offset=-2 / threads=12 / lookahead_threads=2 / sliced_threads=0 / nr=0 / decimate=0 / interlaced=0 / bluray_compat=0 / constrained_intra=0 / bframes=8 / b_pyramid=2 / b_adapt=2 / b_bias=0 / direct=3 / weightb=1 / open_gop=0 / weightp=2 / keyint=250 / keyint_min=23 / scenecut=40 / intra_refresh=0 / rc=crf / mbtree=0 / crf=17.0 / qcomp=0.60 / qpmin=0 / qpmax=69 / qpstep=4 / ip_ratio=1.30 / pb_ratio=1.20 / aq=3:0.80
Language : English
Default : Yes
Forced : No

Audio #1
ID : 2
Format : AC-3
Format/Info : Audio Coding 3
Mode extension : CM (complete main)
Format settings, Endianness : Big
Codec ID : A_AC3
Duration : 51mn 43s
Bit rate mode : Constant
Bit rate : 384 Kbps
Channel(s) : 6 channels
Channel positions : Front: L C R, Side: L R, LFE
Sampling rate : 48.0 KHz
Frame rate : 31.250 fps (1536 spf)
Compression mode : Lossy
Stream size : 142 MiB (4%)
Language : Russian
Default : Yes
Forced : No

Audio #2
ID : 3
Format : AC-3
Format/Info : Audio Coding 3
Mode extension : CM (complete main)
Format settings, Endianness : Big
Codec ID : A_AC3
Duration : 51mn 43s
Bit rate mode : Constant
Bit rate : 384 Kbps
Channel(s) : 6 channels
Channel positions : Front: L C R, Side: L R, LFE
Sampling rate : 48.0 KHz
Frame rate : 31.250 fps (1536 spf)
Compression mode : Lossy
Stream size : 142 MiB (4%)
Language : English
Default : No
Forced : No

Text
ID : 4
Format : UTF-8
Codec ID : S_TEXT/UTF8
Codec ID/Info : UTF-8 Plain Text
Duration : 49mn 7s
Bit rate : 63 bps
Count of elements : 670
Stream size : 23.0 KiB (0%)
Title : English
Language : English
Default : No
Forced : No


Трекер:  [ 13-Сен-2017 20:54 ]

  

Скачать .torrent

Размер .torrent файла 149 KB


Размер: 29.62 GB
Хэш (hash) релиза: 28c4414ee1ad51bb94044262bcf9d0001731068e
Подписка на обновления:

Еще никто не оставлял запись к записи скачать торрент Защитники Marvels The Defenders . Будь первым!

!Обратная связь