Скачать через торрент музыку бесплатно без регистрации torrent

Если у вас наблюдаются проблемы со скриншотами, переходом по ссылками, скачиванием торрентов - проблемы в блокировщике рекламы AdBlock. #хорошегоДня!


Статистика раздачи
Размер:  730 MB   |    Зарегистрирован:  2 месяца 7 дней   |    .torrent скачан:  5 раз   |   
Раздают:  1  
   
Загрузка...
 
Автор Сообщение

Galfimbul

avatar Galfimbul


Four Seasons - Russian Spring 2CD

Жанр: Lounge, Chill Out, Downtempo
Носитель: CD
Страна-производитель диска (релиза): Russia
Год издания: 2014
Издатель (лейбл): Pitch Music
Номер по каталогу: PITM-009CD-DGP
Аудиокодек: FLAC (*.flac)
Тип рипа: tracks+.cue
Битрейт аудио: lossless
Источник (релизер): oleandris
Наличие сканов в содержимом раздачи: да
<div class="sp-wrap">
<div class="sp-head folded">Треклист</div>
<div class="sp-body">01. Mr.Lavr - Raindrops (Original Mix) (5:32)
02. Fake Truth - Sad Happy Smile (Original Mix) (4:38)
03. Aleksey Beloozerov & Ange - So Far Away (R.I.B Сhillout Remix) (4:45)
04. Pavel Zhuravlev - Piano Experience (Original Mix) (3:43)
05. Jane Maximova - Skiff (Original Mix) (4:33)
06. Syntherra - Falling Into The Love (Original Mix) (4:25)
07. Owen Ear - Daybreak (Original Mix) (6:17)
08. El Gambrero - Walk In Portugal (Original Mix) (3:01)
09. Dmitry Lee'O - Rain (Original Mix) (4:16)
10. Aleksey Beloozerov - Valentina (Broken Version) (3:43)
11. My 7sky - Great Inside Yourself (Original Mix) (5:23)
12. Submersion - Water Through Fingers (Original Mix) (6:25)
Exact Audio Copy V1.3 from 2. September 2016

EAC extraction logfile from 13. September 2017, 20:04

Various Artists / Four Seasons - Russian Spring - CD1

Used drive : ASUS DRW-24B3ST Adapter: 1 ID: 0

Read mode : SecureUtilize accurate stream : YesDefeat audio cache : YesMake use of C2 pointers : No

Read offset correction : 6Overread into Lead-In and Lead-Out : NoFill up missing offset samples with silence : YesDelete leading and trailing silent blocks : NoNull samples used in CRC calculations : YesUsed interface : Native Win32 interface for Win NT & 2000Gap handling : Appended to previous track

Used output format : User Defined EncoderSelected bitrate : 896 kBit/sQuality : HighAdd ID3 tag : NoCommand line compressor : C:\Program Files (x86)\Exact Audio Copy\Flac\flac.exeAdditional command line options : -8 -V -T "ARTIST=%artist%" -T "TITLE=%title%" -T "ALBUM=%albumtitle%" -T "DATE=%year%" -T "TRACKNUMBER=%tracknr%" -T "GENRE=%genre%" -T "COMMENT=ripped by Oleandris" %source%

TOC of the extracted CD

Track | Start | Length | Start sector | End sector --------------------------------------------------------- 1 | 0:00.00 | 5:31.47 | 0 | 24871 2 | 5:31.47 | 4:37.51 | 24872 | 45697 3 | 10:09.23 | 4:45.30 | 45698 | 67102 4 | 14:54.53 | 3:42.59 | 67103 | 83811 5 | 18:37.37 | 4:32.73 | 83812 | 104284 6 | 23:10.35 | 4:25.37 | 104285 | 124196 7 | 27:35.72 | 6:17.18 | 124197 | 152489 8 | 33:53.15 | 3:00.43 | 152490 | 166032 9 | 36:53.58 | 4:16.10 | 166033 | 185242 10 | 41:09.68 | 3:43.34 | 185243 | 202001 11 | 44:53.27 | 5:22.49 | 202002 | 226200 12 | 50:16.01 | 6:25.04 | 226201 | 255079

Track 1

Filename I:\AUDIO I\Ambient - Chill Out - Lounge - Easy Listening - Electronic (исполнители и сборники)\ Four Seasons - Russian Springs 2CD (2014)\CD1\01. Mr.Lavr - Raindrops (Original Mix).wav

Pre-gap length 0:00:02.00

Peak level 97.1 % Extraction speed 5.6 X Track quality 100.0 % Test CRC C1107259 Copy CRC C1107259 Accurately ripped (confidence 1) [EDDE5CD6] (AR v2) Copy OK

Track 2

Filename I:\AUDIO I\Ambient - Chill Out - Lounge - Easy Listening - Electronic (исполнители и сборники)\ Four Seasons - Russian Springs 2CD (2014)\CD1\02. Fake Truth - Sad Happy Smile (Original Mix).wav

Pre-gap length 0:00:00.18

Peak level 91.7 % Extraction speed 6.1 X Track quality 100.0 % Test CRC A4A8D1F0 Copy CRC A4A8D1F0 Accurately ripped (confidence 1) [54892062] (AR v2) Copy OK

Track 3

Filename I:\AUDIO I\Ambient - Chill Out - Lounge - Easy Listening - Electronic (исполнители и сборники)\ Four Seasons - Russian Springs 2CD (2014)\CD1\03. Aleksey Beloozerov & Ange - So Far Away (R.I.B Сhillout Remix).wav

Peak level 97.1 % Extraction speed 6.7 X Track quality 100.0 % Test CRC 7F83EB42 Copy CRC 7F83EB42 Accurately ripped (confidence 1) [6F0B8914] (AR v2) Copy OK

Track 4

Filename I:\AUDIO I\Ambient - Chill Out - Lounge - Easy Listening - Electronic (исполнители и сборники)\ Four Seasons - Russian Springs 2CD (2014)\CD1\04. Pavel Zhuravlev - Piano Experience (Original Mix).wav

Peak level 97.1 % Extraction speed 5.6 X Track quality 99.9 % Test CRC 175850B1 Copy CRC 175850B1 Accurately ripped (confidence 1) [AF563451] (AR v2) Copy OK

Track 5

Filename I:\AUDIO I\Ambient - Chill Out - Lounge - Easy Listening - Electronic (исполнители и сборники)\ Four Seasons - Russian Springs 2CD (2014)\CD1\05. Jane Maximova - Skiff (Original Mix).wav

Peak level 97.1 % Extraction speed 7.5 X Track quality 100.0 % Test CRC 3A3804FF Copy CRC 3A3804FF Accurately ripped (confidence 1) [1D643E4F] (AR v2) Copy OK

Track 6

Filename I:\AUDIO I\Ambient - Chill Out - Lounge - Easy Listening - Electronic (исполнители и сборники)\ Four Seasons - Russian Springs 2CD (2014)\CD1\06. Syntherra - Falling Into The Love (Original Mix).wav

Peak level 99.1 % Extraction speed 7.9 X Track quality 100.0 % Test CRC 0CA55B2F Copy CRC 0CA55B2F Accurately ripped (confidence 1) [8B86F1B8] (AR v2) Copy OK

Track 7

Filename I:\AUDIO I\Ambient - Chill Out - Lounge - Easy Listening - Electronic (исполнители и сборники)\ Four Seasons - Russian Springs 2CD (2014)\CD1\07. Owen Ear - Daybreak (Original Mix).wav

Peak level 99.2 % Extraction speed 8.7 X Track quality 100.0 % Test CRC 12AE0C8F Copy CRC 12AE0C8F Accurately ripped (confidence 1) [A020DC4C] (AR v2) Copy OK

Track 8

Filename I:\AUDIO I\Ambient - Chill Out - Lounge - Easy Listening - Electronic (исполнители и сборники)\ Four Seasons - Russian Springs 2CD (2014)\CD1\08. El Gambrero - Walk In Portugal (Original Mix).wav

Peak level 97.5 % Extraction speed 6.4 X Track quality 99.9 % Test CRC AB7DC74A Copy CRC AB7DC74A Accurately ripped (confidence 1) [DDEEBF5B] (AR v2) Copy OK

Track 9

Filename I:\AUDIO I\Ambient - Chill Out - Lounge - Easy Listening - Electronic (исполнители и сборники)\ Four Seasons - Russian Springs 2CD (2014)\CD1\09. Dmitry Lee'O - Rain (Original Mix).wav

Peak level 97.1 % Extraction speed 9.0 X Track quality 100.0 % Test CRC 0ABE07CB Copy CRC 0ABE07CB Accurately ripped (confidence 1) [B7290A64] (AR v2) Copy OK

Track 10

Filename I:\AUDIO I\Ambient - Chill Out - Lounge - Easy Listening - Electronic (исполнители и сборники)\ Four Seasons - Russian Springs 2CD (2014)\CD1\10. Aleksey Beloozerov - Valentina (Broken Version).wav

Peak level 97.1 % Extraction speed 7.3 X Track quality 99.9 % Test CRC 0853F077 Copy CRC 0853F077 Accurately ripped (confidence 1) [AB4DF088] (AR v2) Copy OK

Track 11

Filename I:\AUDIO I\Ambient - Chill Out - Lounge - Easy Listening - Electronic (исполнители и сборники)\ Four Seasons - Russian Springs 2CD (2014)\CD1\11. My 7sky - Great Inside Yourself (Original Mix).wav

Pre-gap length 0:00:00.01

Peak level 97.1 % Extraction speed 9.8 X Track quality 100.0 % Test CRC 9D231D09 Copy CRC 9D231D09 Accurately ripped (confidence 1) [803AFF71] (AR v2) Copy OK

Track 12

Filename I:\AUDIO I\Ambient - Chill Out - Lounge - Easy Listening - Electronic (исполнители и сборники)\ Four Seasons - Russian Springs 2CD (2014)\CD1\12. Submersion - Water Through Fingers (Original Mix).wav

Peak level 97.1 % Extraction speed 10.4 X Track quality 100.0 % Test CRC 6F1A11A1 Copy CRC 6F1A11A1 Accurately ripped (confidence 1) [2C1CB46D] (AR v2) Copy OK

All tracks accurately ripped

No errors occurred

End of status report

---- CUETools DB Plugin V2.1.6

[CTDB TOCID: aw7X4XdryYjpDr_y6sSyPbkdgqE-] foundSubmit result: aw7X4XdryYjpDr_y6sSyPbkdgqE- has been confirmedTrack | CTDB Status 1 | (1/1) Accurately ripped 2 | (1/1) Accurately ripped 3 | (1/1) Accurately ripped 4 | (1/1) Accurately ripped 5 | (1/1) Accurately ripped 6 | (1/1) Accurately ripped 7 | (1/1) Accurately ripped 8 | (1/1) Accurately ripped 9 | (1/1) Accurately ripped 10 | (1/1) Accurately ripped 11 | (1/1) Accurately ripped 12 | (1/1) Accurately ripped

==== Log checksum 5A53E6C7467B77117B5D48402521830B70AC4A91CFECF0617F3953E2CD317A15 ====
REM GENRE LoungeREM DATE 2014REM DISCID 9C0D490CREM COMMENT "ExactAudioCopy v1.3"CATALOG 4601620108204PERFORMER "Various Artists"TITLE "Four Seasons - Russian Spring - CD1"REM COMPOSER ""FILE "01. Mr.Lavr - Raindrops (Original Mix).wav" WAVE TRACK 01 AUDIO TITLE "Raindrops (Original Mix)" PERFORMER "Mr.Lavr" REM COMPOSER "" INDEX 01 00:00:00 TRACK 02 AUDIO TITLE "Sad Happy Smile (Original Mix)" PERFORMER "Fake Truth" REM COMPOSER "" INDEX 00 05:31:29FILE "02. Fake Truth - Sad Happy Smile (Original Mix).wav" WAVE INDEX 01 00:00:00FILE "03. Aleksey Beloozerov & Ange - So Far Away (R.I.B Сhillout Remix).wav" WAVE TRACK 03 AUDIO TITLE "So Far Away (R.I.B Сhillout Remix)" PERFORMER "Aleksey Beloozerov & Ange" REM COMPOSER "" INDEX 01 00:00:00FILE "04. Pavel Zhuravlev - Piano Experience (Original Mix).wav" WAVE TRACK 04 AUDIO TITLE "Piano Experience (Original Mix)" PERFORMER "Pavel Zhuravlev" REM COMPOSER "" INDEX 01 00:00:00FILE "05. Jane Maximova - Skiff (Original Mix).wav" WAVE TRACK 05 AUDIO TITLE "Skiff (Original Mix)" PERFORMER "Jane Maximova" REM COMPOSER "" INDEX 01 00:00:00FILE "06. Syntherra - Falling Into The Love (Original Mix).wav" WAVE TRACK 06 AUDIO TITLE "Falling Into The Love (Original Mix)" PERFORMER "Syntherra" REM COMPOSER "" INDEX 01 00:00:00FILE "07. Owen Ear - Daybreak (Original Mix).wav" WAVE TRACK 07 AUDIO TITLE "Daybreak (Original Mix)" PERFORMER "Owen Ear" REM COMPOSER "" INDEX 01 00:00:00FILE "08. El Gambrero - Walk In Portugal (Original Mix).wav" WAVE TRACK 08 AUDIO TITLE "Walk In Portugal (Original Mix)" PERFORMER "El Gambrero" REM COMPOSER "" INDEX 01 00:00:00FILE "09. Dmitry Lee'O - Rain (Original Mix).wav" WAVE TRACK 09 AUDIO TITLE "Rain (Original Mix)" PERFORMER "Dmitry Lee'O" REM COMPOSER "" INDEX 01 00:00:00FILE "10. Aleksey Beloozerov - Valentina (Broken Version).wav" WAVE TRACK 10 AUDIO TITLE "Valentina (Broken Version)" PERFORMER "Aleksey Beloozerov" REM COMPOSER "" INDEX 01 00:00:00 TRACK 11 AUDIO TITLE "Great Inside Yourself (Original Mix)" PERFORMER "My 7sky" REM COMPOSER "" INDEX 00 03:43:33FILE "11. My 7sky - Great Inside Yourself (Original Mix).wav" WAVE INDEX 01 00:00:00FILE "12. Submersion - Water Through Fingers (Original Mix).wav" WAVE TRACK 12 AUDIO TITLE "Water Through Fingers (Original Mix)" PERFORMER "Submersion" REM COMPOSER "" INDEX 01 00:00:00
Время звучания: 56:41:06</div>
</div>
<div class="sp-wrap">
<div class="sp-head folded">Треклист</div>
<div class="sp-body">01. Magenta Sounds - No Gravity (Ambient Mix) (4:35)
02. Jane Maximova - Skiff (Aspecta Remix) (2:11)
03. Intuneric - Is It You (Original Mix) (3:00)
04. Igor Leontyev - Nothing Matters (Original Mix) (3:53)
05. Pavel Zhuravlev - So High (Original Mix) (3:50)
06. Jane Maximova feat. V.Ray - Calm Me Down (Radio Edit) (4:08)
07. iT Kando - Fairy Tales Come True (Original Mix) (2:46)
08. Olya Bravina - Wake Me Up In May (Bichan Spring Version) (5:18)
09. Jane Maximova - Wind Dance (Original Mix) (4:42)
10. Asten - Midnight Story (Owen Ear Remix) (7:26)
11. Aquascape - Breeze Time (Original Mix) (6:28)
12. Ozone Cocktail - Morning Song (Original Mix) (2:03)
Exact Audio Copy V1.3 from 2. September 2016

EAC extraction logfile from 13. September 2017, 20:04

Various Artists / Four Seasons - Russian Spring - CD2

Used drive : PLEXTOR DVDR PX-891SA Adapter: 1 ID: 1

Read mode : SecureUtilize accurate stream : YesDefeat audio cache : YesMake use of C2 pointers : No

Read offset correction : 6Overread into Lead-In and Lead-Out : NoFill up missing offset samples with silence : YesDelete leading and trailing silent blocks : NoNull samples used in CRC calculations : YesUsed interface : Native Win32 interface for Win NT & 2000Gap handling : Appended to previous track

Used output format : User Defined EncoderSelected bitrate : 896 kBit/sQuality : HighAdd ID3 tag : NoCommand line compressor : C:\Program Files (x86)\Exact Audio Copy\Flac\flac.exeAdditional command line options : -8 -V -T "ARTIST=%artist%" -T "TITLE=%title%" -T "ALBUM=%albumtitle%" -T "DATE=%year%" -T "TRACKNUMBER=%tracknr%" -T "GENRE=%genre%" -T "COMMENT=ripped by Oleandris" %source%

TOC of the extracted CD

Track | Start | Length | Start sector | End sector --------------------------------------------------------- 1 | 0:00.00 | 4:34.60 | 0 | 20609 2 | 4:34.60 | 2:11.09 | 20610 | 30443 3 | 6:45.69 | 3:00.21 | 30444 | 43964 4 | 9:46.15 | 3:53.37 | 43965 | 61476 5 | 13:39.52 | 3:50.24 | 61477 | 78750 6 | 17:30.01 | 4:08.14 | 78751 | 97364 7 | 21:38.15 | 2:46.05 | 97365 | 109819 8 | 24:24.20 | 5:17.71 | 109820 | 133665 9 | 29:42.16 | 4:42.02 | 133666 | 154817 10 | 34:24.18 | 7:25.71 | 154818 | 188263 11 | 41:50.14 | 6:27.71 | 188264 | 217359 12 | 48:18.10 | 2:02.54 | 217360 | 226563

Track 1

Filename I:\AUDIO I\Ambient - Chill Out - Lounge - Easy Listening - Electronic (исполнители и сборники)\ Four Seasons - Russian Springs 2CD (2014)\CD2\01. Magenta Sounds - No Gravity (Ambient Mix).wav

Pre-gap length 0:00:02.00

Peak level 90.5 % Extraction speed 5.5 X Track quality 100.0 % Test CRC D5BB20C4 Copy CRC D5BB20C4 Accurately ripped (confidence 1) [5E124DB8] (AR v2) Copy OK

Track 2

Filename I:\AUDIO I\Ambient - Chill Out - Lounge - Easy Listening - Electronic (исполнители и сборники)\ Four Seasons - Russian Springs 2CD (2014)\CD2\02. Jane Maximova - Skiff (Aspecta Remix).wav

Peak level 82.0 % Extraction speed 4.0 X Track quality 99.9 % Test CRC A86D6542 Copy CRC A86D6542 Accurately ripped (confidence 1) [D27AD273] (AR v2) Copy OK

Track 3

Filename I:\AUDIO I\Ambient - Chill Out - Lounge - Easy Listening - Electronic (исполнители и сборники)\ Four Seasons - Russian Springs 2CD (2014)\CD2\03. Intuneric - Is It You (Original Mix).wav

Peak level 97.1 % Extraction speed 4.8 X Track quality 99.9 % Test CRC BDBE1B0F Copy CRC BDBE1B0F Accurately ripped (confidence 1) [1E597D91] (AR v2) Copy OK

Track 4

Filename I:\AUDIO I\Ambient - Chill Out - Lounge - Easy Listening - Electronic (исполнители и сборники)\ Four Seasons - Russian Springs 2CD (2014)\CD2\04. Igor Leontyev - Nothing Matters (Original Mix).wav

Peak level 97.1 % Extraction speed 6.6 X Track quality 100.0 % Test CRC 6FEBB0CF Copy CRC 6FEBB0CF Accurately ripped (confidence 1) [6FBD680F] (AR v2) Copy OK

Track 5

Filename I:\AUDIO I\Ambient - Chill Out - Lounge - Easy Listening - Electronic (исполнители и сборники)\ Four Seasons - Russian Springs 2CD (2014)\CD2\05. Pavel Zhuravlev - So High (Original Mix).wav

Peak level 84.6 % Extraction speed 7.1 X Track quality 100.0 % Test CRC 7E3462B8 Copy CRC 7E3462B8 Accurately ripped (confidence 1) [C32ED425] (AR v2) Copy OK

Track 6

Filename I:\AUDIO I\Ambient - Chill Out - Lounge - Easy Listening - Electronic (исполнители и сборники)\ Four Seasons - Russian Springs 2CD (2014)\CD2\06. Jane Maximova feat. V.Ray - Calm Me Down (Radio Edit).wav

Peak level 93.8 % Extraction speed 7.6 X Track quality 100.0 % Test CRC 00714107 Copy CRC 00714107 Accurately ripped (confidence 1) [5D7B7406] (AR v2) Copy OK

Track 7

Filename I:\AUDIO I\Ambient - Chill Out - Lounge - Easy Listening - Electronic (исполнители и сборники)\ Four Seasons - Russian Springs 2CD (2014)\CD2\07. iT Kando - Fairy Tales Come True (Original Mix).wav

Peak level 93.7 % Extraction speed 7.5 X Track quality 100.0 % Test CRC 7AA2185C Copy CRC 7AA2185C Accurately ripped (confidence 1) [D1D63495] (AR v2) Copy OK

Track 8

Filename I:\AUDIO I\Ambient - Chill Out - Lounge - Easy Listening - Electronic (исполнители и сборники)\ Four Seasons - Russian Springs 2CD (2014)\CD2\08. Olya Bravina - Wake Me Up In May (Bichan Spring Version).wav

Peak level 96.7 % Extraction speed 8.5 X Track quality 100.0 % Test CRC EEB002D2 Copy CRC EEB002D2 Accurately ripped (confidence 1) [7D96EF70] (AR v2) Copy OK

Track 9

Filename I:\AUDIO I\Ambient - Chill Out - Lounge - Easy Listening - Electronic (исполнители и сборники)\ Four Seasons - Russian Springs 2CD (2014)\CD2\09. Jane Maximova - Wind Dance (Original Mix).wav

Peak level 97.1 % Extraction speed 8.8 X Track quality 100.0 % Test CRC E9EF21CF Copy CRC E9EF21CF Accurately ripped (confidence 1) [6BB2A456] (AR v2) Copy OK

Track 10

Filename I:\AUDIO I\Ambient - Chill Out - Lounge - Easy Listening - Electronic (исполнители и сборники)\ Four Seasons - Russian Springs 2CD (2014)\CD2\10. Asten - Midnight Story (Owen Ear Remix).wav

Peak level 90.7 % Extraction speed 9.7 X Track quality 100.0 % Test CRC A1738513 Copy CRC A1738513 Accurately ripped (confidence 1) [C0EE0276] (AR v2) Copy OK

Track 11

Filename I:\AUDIO I\Ambient - Chill Out - Lounge - Easy Listening - Electronic (исполнители и сборники)\ Four Seasons - Russian Springs 2CD (2014)\CD2\11. Aquascape - Breeze Time (Original Mix).wav

Peak level 97.1 % Extraction speed 10.2 X Track quality 100.0 % Test CRC A4D68059 Copy CRC A4D68059 Accurately ripped (confidence 1) [D5C1FF0D] (AR v2) Copy OK

Track 12

Filename I:\AUDIO I\Ambient - Chill Out - Lounge - Easy Listening - Electronic (исполнители и сборники)\ Four Seasons - Russian Springs 2CD (2014)\CD2\12. Ozone Cocktail - Morning Song (Original Mix).wav

Peak level 87.5 % Extraction speed 8.8 X Track quality 100.0 % Test CRC 932AE8B5 Copy CRC 932AE8B5 Accurately ripped (confidence 1) [4A061B34] (AR v2) Copy OK

All tracks accurately ripped

No errors occurred

End of status report

---- CUETools DB Plugin V2.1.6

[CTDB TOCID: hPeqXSMB7r2wLbAtVuJJsr0V0mo-] foundSubmit result: hPeqXSMB7r2wLbAtVuJJsr0V0mo- has been confirmedTrack | CTDB Status 1 | (1/1) Accurately ripped 2 | (1/1) Accurately ripped 3 | (1/1) Accurately ripped 4 | (1/1) Accurately ripped 5 | (1/1) Accurately ripped 6 | (1/1) Accurately ripped 7 | (1/1) Accurately ripped 8 | (1/1) Accurately ripped 9 | (1/1) Accurately ripped 10 | (1/1) Accurately ripped 11 | (1/1) Accurately ripped 12 | (1/1) Accurately ripped

==== Log checksum E55286CDD3E0B433C988DEFB835B3AFACCA6746494DA836C9B3CB96C77C06432 ====
REM GENRE LoungeREM DATE 2014REM DISCID 900BCC0CREM COMMENT "ExactAudioCopy v1.3"CATALOG 4601620108204PERFORMER "Various Artists"TITLE "Four Seasons - Russian Spring - CD2"REM COMPOSER ""FILE "01. Magenta Sounds - No Gravity (Ambient Mix).wav" WAVE TRACK 01 AUDIO TITLE "No Gravity (Ambient Mix)" PERFORMER "Magenta Sounds" REM COMPOSER "" INDEX 01 00:00:00FILE "02. Jane Maximova - Skiff (Aspecta Remix).wav" WAVE TRACK 02 AUDIO TITLE "Skiff (Aspecta Remix)" PERFORMER "Jane Maximova" REM COMPOSER "" INDEX 01 00:00:00FILE "03. Intuneric - Is It You (Original Mix).wav" WAVE TRACK 03 AUDIO TITLE "Is It You (Original Mix)" PERFORMER "Intuneric" REM COMPOSER "" INDEX 01 00:00:00FILE "04. Igor Leontyev - Nothing Matters (Original Mix).wav" WAVE TRACK 04 AUDIO TITLE "Nothing Matters (Original Mix)" PERFORMER "Igor Leontyev" REM COMPOSER "" INDEX 01 00:00:00FILE "05. Pavel Zhuravlev - So High (Original Mix).wav" WAVE TRACK 05 AUDIO TITLE "So High (Original Mix)" PERFORMER "Pavel Zhuravlev" REM COMPOSER "" INDEX 01 00:00:00FILE "06. Jane Maximova feat. V.Ray - Calm Me Down (Radio Edit).wav" WAVE TRACK 06 AUDIO TITLE "Calm Me Down (Radio Edit)" PERFORMER "Jane Maximova feat. V.Ray" REM COMPOSER "" INDEX 01 00:00:00FILE "07. iT Kando - Fairy Tales Come True (Original Mix).wav" WAVE TRACK 07 AUDIO TITLE "Fairy Tales Come True (Original Mix)" PERFORMER "iT Kando" REM COMPOSER "" INDEX 01 00:00:00FILE "08. Olya Bravina - Wake Me Up In May (Bichan Spring Version).wav" WAVE TRACK 08 AUDIO TITLE "Wake Me Up In May (Bichan Spring Version)" PERFORMER "Olya Bravina" REM COMPOSER "" INDEX 01 00:00:00FILE "09. Jane Maximova - Wind Dance (Original Mix).wav" WAVE TRACK 09 AUDIO TITLE "Wind Dance (Original Mix)" PERFORMER "Jane Maximova" REM COMPOSER "" INDEX 01 00:00:00FILE "10. Asten - Midnight Story (Owen Ear Remix).wav" WAVE TRACK 10 AUDIO TITLE "Midnight Story (Owen Ear Remix)" PERFORMER "Asten" REM COMPOSER "" INDEX 01 00:00:00FILE "11. Aquascape - Breeze Time (Original Mix).wav" WAVE TRACK 11 AUDIO TITLE "Breeze Time (Original Mix)" PERFORMER "Aquascape" REM COMPOSER "" INDEX 01 00:00:00FILE "12. Ozone Cocktail - Morning Song (Original Mix).wav" WAVE TRACK 12 AUDIO TITLE "Morning Song (Original Mix)" PERFORMER "Ozone Cocktail" REM COMPOSER "" INDEX 01 00:00:00
Время звучания: 50:20:85</div>
</div>

Трекер:  [ 13-Сен-2017 20:30 ]

  

Скачать .torrent

Размер .torrent файла 18 KB


Размер: 730 MB
Хэш (hash) релиза: 230628222d6e975c9cf064bf7feb4b9dba5a50ad

Еще никто не оставлял запись к записи скачать торрент . Будь первым!

!Обратная связь