Скачать через торрент Над глубиной: Хроника выживания Cage Dive Фильм бесплатно в хорошем качестве torrent

Скачивайте на UnionPeer.org фильмы через торрент без регистрации. Новинки кино в хорошем качестве через торрент. На UnionPeer.org можно скачать через торрент фильмы 2014 и 2015 годов. Самые новые фильмы.

Скачать торрент Над глубиной: Хроника выживания Cage Dive бесплатно через .torrent фильм мультфильм сериал

Если у вас наблюдаются проблемы со скриншотами, переходом по ссылками, скачиванием торрентов - проблемы в блокировщике рекламы AdBlock. #хорошегоДня!


Статистика раздачи
Размер:  1.46 GB   |    Зарегистрирован:  8 дней   |    .torrent скачан:  51 раз   |   
Раздают:  3  
   
Загрузка...
 
Автор Сообщение

Galfimbul

avatar Galfimbul


Над глубиной: Хроника выживания / Cage Dive

Страна: Австралия
Жанр: ужасы, триллер, драма
Год выпуска: 2017
Продолжительность: 01:16:57

Перевод: Профессиональный (дублированный) | iTunes
Субтитры: нет
Оригинальная аудиодорожка: нетРежиссер:
Джералд Рашионато / Gerald RascionatoВ ролях:
Джоэль Хоган, Джош Поттхофф, Меган Пета Хилл, Пит Вэлли, Марк Фелл, Кристофер Коллен, Тара Рэйт, Teagan Berger, Крис Бэс, Robert OvadiaОписание:
Три американских студента решили записать на видео свой экстремальный отдых: глубоководное погружение в клетке к большой белой акуле в Южной Австралии. Весёлое приключение — такой забавой это казалось для друзей. Но катастрофический поворот событий расставил всё по своим местам: друзья оказались в открытом море наедине с большой белой акулой.Качество видео: WEB-DLRip | CAGE_DIVE_WEB_DL_1080p-BLUEBIRD.mkv
Формат видео: AVI

Видео: 704x384 (1.83:1), 25 fps, XviD build 73 ~2315 kbps avg, 0.34 bit/pixel
Аудио: 48 kHz, AC3 Dolby Digital, 3/2 (L,C,R,l,r) + LFE ch, ~384 kbpsСкачать сэмпл
Format                      : AVI
Format/Info                 : Audio Video Interleave
File size                   : 1.46 GiB
Duration                    : 1 h 16 min
Overall bit rate            : 2 710 kb/s
Writing application         : VirtualDubMod 1.5.10.3 | www.virtualdub-fr.org || (build 2550/release)
Writing library             : VirtualDubMod build 2550/release

Video
ID                          : 0
Format                      : MPEG-4 Visual
Format profile              : Advanced Simple@L5
Format settings, BVOP       : 1
Format settings, QPel       : No
Format settings, GMC        : No warppoints
Format settings, Matrix     : Custom
Codec ID                    : XVID
Codec ID/Hint               : XviD
Duration                    : 1 h 16 min
Bit rate                    : 2 316 kb/s
Width                       : 704 pixels
Height                      : 384 pixels
Display aspect ratio        : 1.85:1
Frame rate                  : 25.000 FPS
Color space                 : YUV
Chroma subsampling          : 4:2:0
Bit depth                   : 8 bits
Scan type                   : Progressive
Compression mode            : Lossy
Bits/(Pixel*Frame)          : 0.343
Stream size                 : 1.24 GiB (85%)
Writing library             : XviD 73

Audio
ID                          : 1
Format                      : AC-3
Format/Info                 : Audio Coding 3
Format settings, Endianness : Big
Codec ID                    : 2000
Duration                    : 1 h 16 min
Bit rate mode               : Constant
Bit rate                    : 384 kb/s
Channel(s)                  : 6 channels
Channel positions           : Front: L C R, Side: L R, LFE
Sampling rate               : 48.0 kHz
Frame rate                  : 31.250 FPS (1536 spf)
Bit depth                   : 16 bits
Compression mode            : Lossy
Stream size                 : 211 MiB (14%)
Alignment                   : Split accross interleaves
Interleave, duration        : 40  ms (1.00 video frame)
Interleave, preload duratio : 500  ms
Service kind                : Complete Main


Трекер:  [ 13-Сен-2017 20:30 ]

  

Скачать .torrent

Размер .torrent файла 15 KB


Размер: 1.46 GB
Хэш (hash) релиза: 79ade5e7c1f37012a42be87efab941195b0bd0bd
Подписка на обновления:

Торренты, похожие на Над глубиной: Хроника выживания Cage Dive скачать торрент

Форум Название Автор Размер S L Добавлен
Зарубежные фильмы 2016-2017 (Новинки зарубежного кино) ·· Над глубиной: Хроника выживания / Cage Dive (Джералд Рашионато / Gerald Rascionato) [2017, Австралия, ужасы, триллер, драма, WEB-DLRip-AVC] Dub Galfimbul 781080510745 MB 2 0 1505570482

17:01

16-Сен-17

Зарубежные фильмы 2016-2017 (Новинки зарубежного кино) ·· Над глубиной: Хроника выживания / Cage Dive (Джералд Рашионато) [2017 г., ужасы, триллер, драма, WEB-DL 720p] iTunes Galfimbul 28844418102.69 GB 2 0 1505128249

14:10

11-Сен-17

Зарубежные фильмы 2016-2017 (Новинки зарубежного кино) ·· Над глубиной: Хроника выживания / Cage Dive (Джералд Рашионато) [2017 г., ужасы, триллер, драма, WEB-DLRip] DUB | iTunes Galfimbul 14704742401.37 GB 2 0 1505124909

13:15

11-Сен-17

Зарубежные фильмы 2016-2017 (Новинки зарубежного кино) ·· Над глубиной: Хроника выживания / Cage Dive (Джералд Рашионато) [2017 г., ужасы, триллер, драма, WEB-DL 1080р] iTunes Galfimbul 34014701353.17 GB 2 0 1505124622

13:10

11-Сен-17

Зарубежные фильмы 2016-2017 (Новинки зарубежного кино) ·· Над глубиной: Хроника выживания / Cage Dive (Джералд Рашионато) [2017 г., ужасы, триллер, драма, WEB-DLRip] DUB | Чистый звук Galfimbul 14679490561.37 GB 0 0 1504442927

15:48

3-Сен-17

Зарубежные фильмы 2016-2017 (Новинки зарубежного кино) ·· Над глубиной: Хроника выживания / Cage Dive (Джералд Рашионато) [2017, ужасы, триллер, драма, WEB-DLRip] Galfimbul 15595784241.45 GB 4 0 1503148226

16:10

19-Авг-17

Еще никто не оставлял запись к записи скачать торрент Над глубиной: Хроника выживания Cage Dive . Будь первым!

!Обратная связь