Скачать через торрент Дениз в моём сердце Kalbimdeki Deniz Фильм бесплатно в хорошем качестве torrent

Скачивайте на UnionPeer.org фильмы через торрент без регистрации. Новинки кино в хорошем качестве через торрент. На UnionPeer.org можно скачать через торрент фильмы 2014 и 2015 годов. Самые новые фильмы.

Скачать торрент Дениз в моём сердце Kalbimdeki Deniz бесплатно через .torrent фильм мультфильм сериал

Если у вас наблюдаются проблемы со скриншотами, переходом по ссылками, скачиванием торрентов - проблемы в блокировщике рекламы AdBlock. #хорошегоДня!


Статистика раздачи
Размер:  2.18 GB   |    Зарегистрирован:  8 дней   |    .torrent скачан:  1 раз   |   
Раздают:  1  
   
Загрузка...
 
Автор Сообщение

Galfimbul

avatar Galfimbul


Дениз в моём сердце / Kalbimdeki Deniz

Год выпуска: 2017
Страна: Турция
Производство: PASTEL FILM
Жанр: Мелодрама
Серии (количество): 1 (35) (??)
Продолжительность: ~ 02:30:00 / каждая серия
Субтитры: русские (AyTurk)

Режиссёр: Айсун Акйюз Мехдиаббас / Aysun Akyüz Mehdiabbas

В ролях: Озге Озберк, Кутси, Ешим Джерен Бозоглу, Девин Озгюр Чынар, Хакан Эратик, Сэбахат Кумаш, Хакан Ванлы, Фарук Устюн, Батухан Экши, Гюзин Уста, Хазал Адыяман, Левент Йылмаз, Хюлья Шен, Назлы Пынар Кая, Эврэн Эрлер, Серджан Гюльбахар, Серкан Алтынбаш, Эмрэ Янык, Чаглаян Дорук Озаноглу и Суат Карауста.

Описание: Турецкий сериал "Дениз в моем сердце" – это весьма непростая история, в центре внимания которой находится молодая женщина по имени Дениз. Ещё вчера она была счастлива, ведь у неё было всё о чём только можно мечтать: шикарный дом, любимый муж и двое детишек. Кроме того, вместе с ними живёт и пожилой папа главной героини. Но, как нам известно, сказка не может длиться вечно… И вот в один день на её плечи будто падает небо, и после этого её жизнь кардинально меняется. Дело в том, что её муж неожиданно для всех – попросту исчезает. Вот только, как говорится, беда не приходит одна. И вот пока главная героиня сериала занята поисками своего любимого – до неё доходит весть, что её семья потеряла всё, что у них было… Однако, Дениз ещё даже не подозревает, что её муж намерен создать новую семью, и естественно без неё и детей. Оказывается, что муж сбежал с другой, молодой и привлекательной женщиной. Вскоре станет известно, что новой избранницей мужа Дениз станет её лучшая подруга – Хюлия. Всё это было огромным ударом для Дениз, что и не удивительно, ведь в один миг она потеряла фактически всё, что у неё было. Сейчас она вынуждена найти новый дом, который будет её семье по карману. Но, и тут не без сюрпризов… Начните смотреть этот сериал, чтобы узнать, что будет дальше. И, поверьте, впереди зрителей ожидает масса интересного!

Ссылка на предыдущие и альтернативные раздачи: http://rutracker.org/forum/tracker.php?nm=%D0%94%D0...0%D0%BC%D0%BE%D1

Качество: WEBRip (720p)
Формат: MP4
Видео кодек: H.264
Аудио кодек: AAC
Видео: MPEG4, Video (H264), 1280x720, 25fps, 1 650 Kbps
Аудио: AAC, 44100Hz, stereo, 129kbps
General
Complete name : I:\Deniz.s02.2017.russ.sub.WEBRip720p\Deniz.s02.e35.2017.russ.sub.WEBRip720p.mp4
Format : MPEG-4
Format profile : Base Media
Codec ID : isom
File size : 2.18 GiB
Duration : 2h 54mn
Overall bit rate : 1 786 Kbps
Writing application : Lavf56.40.101

Video
ID : 1
Format : AVC
Format/Info : Advanced Video Codec
Format profile : High@L3.1
Format settings, CABAC : Yes
Format settings, ReFrames : 3 frames
Codec ID : avc1
Codec ID/Info : Advanced Video Coding
Duration : 2h 54mn
Bit rate : 1 650 Kbps
Width : 1 280 pixels
Height : 720 pixels
Display aspect ratio : 16:9
Frame rate mode : Constant
Frame rate : 25.000 fps
Color space : YUV
Chroma subsampling : 4:2:0
Bit depth : 8 bits
Scan type : Progressive
Bits/(Pixel*Frame) : 0.072
Stream size : 2.01 GiB (92%)
Writing library : x264 core 148
Encoding settings : cabac=1 / ref=3 / deblock=1:0:0 / analyse=0x3:0x113 / me=hex / subme=7 / psy=1 / psy_rd=1.00:0.00 / mixed_ref=1 / me_range=16 / chroma_me=0 / trellis=1 / 8x8dct=1 / cqm=0 / deadzone=21,11 / fast_pskip=1 / chroma_qp_offset=-2 / threads=22 / lookahead_threads=3 / sliced_threads=0 / nr=0 / decimate=1 / interlaced=0 / bluray_compat=0 / constrained_intra=0 / bframes=3 / b_pyramid=1 / b_adapt=1 / b_bias=0 / direct=1 / weightb=1 / open_gop=0 / weightp=2 / keyint=250 / keyint_min=25 / scenecut=40 / intra_refresh=0 / rc_lookahead=40 / rc=2pass / mbtree=1 / bitrate=1650 / ratetol=1.0 / qcomp=0.60 / qpmin=0 / qpmax=69 / qpstep=4 / cplxblur=20.0 / qblur=0.5 / ip_ratio=1.41 / aq=1:1.00

Audio
ID : 2
Format : AAC
Format/Info : Advanced Audio Codec
Format profile : LC
Codec ID : 40
Duration : 2h 54mn
Duration_LastFrame : -9ms
Bit rate mode : Constant
Bit rate : 132 Kbps
Channel(s) : 2 channels
Channel positions : Front: L R
Sampling rate : 44.1 KHz
Compression mode : Lossy
Delay relative to video : 80ms
Stream size : 162 MiB (7%)


Трекер:  [ 13-Сен-2017 20:24 ]

  

Скачать .torrent

Размер .torrent файла 11 KB


Размер: 2.18 GB
Хэш (hash) релиза: 0513934b60fd3d89bac8f61375a1b8e64146445e
Подписка на обновления:

Еще никто не оставлял запись к записи скачать торрент Дениз в моём сердце Kalbimdeki Deniz . Будь первым!

!Обратная связь