Скачать через торрент Храбрые ведьмы Brave Witches: Petersburg Daisenryaku бесплатно Аниме Все серии на русском torrent

Если у вас наблюдаются проблемы со скриншотами, переходом по ссылками, скачиванием торрентов - проблемы в блокировщике рекламы AdBlock. #хорошегоДня!


Статистика раздачи
Размер:  394 MB   |    Зарегистрирован:  2 месяца 7 дней   |    .torrent скачан:  10 раз   |   
Раздают:  1  
   
Загрузка...
 
Автор Сообщение

Galfimbul

avatar Galfimbul


Храбрые Ведьмы / Brave Witches: Petersburg Daisenryaku / ブレイブウィッチーズ ペテルブルグ大戦略
Год выпуска: 2017 г.
Страна: Япония
Жанр: Приключения, Экшен, Магия, Военный, ЭттиТип: OVAПродолжительность: 1 эп. по 26 мин.
Режиссер: Такамура Кадзухиро
Студия: Silver LinkПеревод:

Русские субтитры от Nelar

Описание:
В мире, где волшебство существует и поставлено на службу человечеству, ведьмы не только живут бок о бок с остальными людьми, но и активно защищают их от всяческих бед. Когда началась глобальная война, ведьмы тоже отправились на фронт и в составе собственных боевых подразделений начали воевать на благо своей страны.

В сентябре 1944 года союзные войска, которые шли за эскадрильей ведьм, успешно отразили атаку на Республику Галлию и тем самым позаботились о безопасности западной Европы. Вдохновленные этой победой, союзники повернули ход событий и перешли в наступление. Однако их усилий было мало для победы над врагом: он ведет наступление еще и на востоке. В империи Оруссии тоже есть ведьмы, и они тоже воюют. Пока союзные войска отвоевывают западную Европу у захватчика, ведьмы из Оруссии готовятся подняться в холодное небо восточной Европы и выполнить свою задачу — нанести удар на своем фронте и поразить врага на восточном фронте. На хрупкие плечи этих девушек возложены надежды всего свободного мира.Информационные ссылки: World Art || AniDB || MALКачество: BDRip | Рип: [Ohys-Raws]
Тип релиза: Без хардсаба
Формат видео: MP4
Наличие линковки: Нет
Видео: AVC, 1280x720, ~1916 kbps, 23.976 fps [8 bit]
Аудио:
1. Japanese AAC, 48.0 KHz, ~205 kbps, 2 ch;
Субтитры:

Russian: ASS, внешние;
General Format : MPEG-4 Format profile : Base Media Codec ID : isom File size : 394 MiB Duration : 25mn 53s Overall bit rate mode : Variable Overall bit rate : 2 125 Kbps Encoded date : UTC 2017-09-12 15:27:09 Tagged date : UTC 2017-09-12 15:27:09 Video #1 ID : 1 Format : AVC Format/Info : Advanced Video Codec Format profile : Main@L4.1 Format settings, CABAC : Yes Format settings, ReFrames : 4 frames Codec ID : avc1 Codec ID/Info : Advanced Video Coding Duration : 25mn 53s Bit rate : 1 916 Kbps Maximum bit rate : 10.8 Mbps Width : 1 280 pixels Height : 720 pixels Display aspect ratio : 16:9 Frame rate mode : Constant Frame rate : 23.976 fps Color space : YUV Chroma subsampling : 4:2:0 Bit depth : 8 bits Scan type : Progressive Bits/(Pixel*Frame) : 0.087 Stream size : 355 MiB (90%) Writing library : x264 core 152 r2851+58 429492e t_mod_Custom [8-bit@all X86] Encoding settings : cabac=1 / ref=3 / deblock=1:0:0 / analyse=0x1:0x131 / me=umh / subme=9 / psy=1 / fade_compensate=0.00 / psy_rd=1.00:0.00 / mixed_ref=1 / me_range=32 / chroma_me=1 / trellis=1 / 8x8dct=0 / cqm=0 / deadzone=21,11 / fast_pskip=1 / chroma_qp_offset=-2 / threads=18 / lookahead_threads=1 / sliced_threads=0 / nr=0 / decimate=1 / interlaced=0 / bluray_compat=0 / constrained_intra=0 / fgo=0 / bframes=3 / b_pyramid=2 / b_adapt=1 / b_bias=0 / direct=1 / weightb=1 / open_gop=0 / weightp=2 / keyint=240 / keyint_min=1 / scenecut=40 / intra_refresh=0 / rc_lookahead=40 / rc=crf / mbtree=1 / crf=18.0000 / qcomp=0.60 / qpmin=0:0:0 / qpmax=69:69:69 / qpstep=4 / ip_ratio=1.40 / aq=1:1.00 / aq-sensitivity=10.00 / aq-factor=1.00:1.00:1.00 / aq2=0 / aq3=0 Encoded date : UTC 2017-09-12 15:27:09 Tagged date : UTC 2017-09-12 15:27:15 Audio #2 ID : 2 Format : AAC Format/Info : Advanced Audio Codec Format profile : LC Codec ID : 40 Duration : 25mn 53s Bit rate mode : Variable Bit rate : 205 Kbps Maximum bit rate : 277 Kbps Channel(s) : 2 channels Channel positions : Front: L R Sampling rate : 48.0 KHz Compression mode : Lossy Stream size : 38.0 MiB (10%) Language : Japanese Encoded date : UTC 2017-09-11 17:13:33 Tagged date : UTC 2017-09-12 15:27:15
01./13. Великая Стратегия Петербурга / Petersburg Great Strategy


Трекер:  [ 13-Сен-2017 17:01 ]

  

Скачать .torrent

Размер .torrent файла 16 KB


Размер: 394 MB
Хэш (hash) релиза: e41684563c85d07ab8516a95e2783d1b0c57c616
Подписка на обновления:

Еще никто не оставлял запись к записи скачать торрент Храбрые ведьмы Brave Witches: Petersburg Daisenryaku . Будь первым!

!Обратная связь