Скачать через торрент Флотская коллекция Gekijouban KanColle бесплатно Аниме Все серии на русском torrent

Если у вас наблюдаются проблемы со скриншотами, переходом по ссылками, скачиванием торрентов - проблемы в блокировщике рекламы AdBlock. #хорошегоДня!


Статистика раздачи
Размер:  10.91 GB   |    Зарегистрирован:  5 дней   |    .torrent скачан:  0 раз   |   
Раздают:  1  
   
Загрузка...
 
Автор Сообщение

Galfimbul

avatar Galfimbul


Флотская коллекция
Gekijouban KanColle
Gekijouban Kantai Collection
劇場版 艦これ

Страна: Япония
Год выпуска: 2016 г.
Жанр: экшен, военный, повседневность, драма
Тип: Movie
Продолжительность: ~95 мин.
Режиссер: Кусакава Кэйдзо
Студия: DiomedeaРусские субтитры
Перевод: anipaladinОписание: Таинственный враг, появившийся из глубин морей, захватил контроль над всеми морями мира. Только девушки, обладающие душами военных кораблей времен второй мировой войны, могут противостоять "Флоту глубоководного моря". После потери базы, благодаря стратегии Адмирала, девочки-корабли одержали победу, но после их жестокогобоя, борьба становилась все более ожесточенной. Основываясь на успешной стратегии, в качестве плацдарма, силы стягиваются к югу. Продолжая захватывать новую территорию у противника, он расширяет свой театр боевых действий. Собранные на новой передовой базе, девушки готовятся к следующей миссии. Благодаря успешным боевым действиям и присоединившейся новой боевой мощи, девушки смогли преуспеть в стратегии и были в приподнятом настроении, но оказалось, что в центре боевой зоны произошла серьезная авария. Так что же ожидает девочек-кораблей?Информационные ссылки: AniDB | MyAnimeList | World ArtКачество: BDRip
Тип релиза: Без хардсаба
Формат видео: MKV
Наличие линковки: Нет
Релиз/Автор рипа: Jensen [Beatrice-Raws]
Видео: x264, Hi10p, 1920x1080, 9931 Kbps, 23.976 fps
Аудио (int): JAP, FLAC, 48000 Hz, 1486 Kbps, 2 ch
Аудио (ext): JAP, FLAC, 48000 Hz, 3588 Kbps, 5.1 ch
Субтитры (ext): Rus, ASS
<div class="sp-wrap">
<div class="sp-head folded">MediaInfo</div>
<div class="sp-body">

Формат : MatroskaВерсия формата : Version 4 / Version 2Размер файла : 7,42 ГбайтПродолжительность : 1 ч. 33 м.Режим общего битрейта : ПеременныйОбщий поток : 11,4 Мбит/секДата кодирования : UTC 2017-09-09 02:32:43Программа кодирования : mkvmerge v14.0.0 ('Flow') 64bitБиблиотека кодирования : libebml v1.3.4 + libmatroska v1.4.5

ВидеоИдентификатор : 1Формат : AVCФормат/Информация : Advanced Video CodecПрофиль формата : High 10@L5Параметр CABAC формата : ДаПараметр ReFrames формата : 4 кадраИдентификатор кодека : V_MPEG4/ISO/AVCПродолжительность : 1 ч. 33 м.Битрейт : 9931 Кбит/секШирина : 1920 пикселейВысота : 1080 пикселейСоотношение сторон : 16:9Режим частоты кадров : ПостоянныйЧастота кадров : 23,976 (24000/1001) кадра/секЦветовое пространство : YUVСубдискретизация насыщенности : 4:2:0Битовая глубина : 10 битТип развёртки : ПрогрессивнаяБит/(Пиксели*Кадры) : 0.200Размер потока : 6,46 Гбайт (87%)Заголовок : BDrip by JensenБиблиотека кодирования : x264 core 148 r2597M e86f3a1 (DJATOM's build)Настройки программы : cabac=1 / ref=4 / deblock=1:1:-1 / analyse=0x3:0x113 / me=umh / subme=9 / psy=1 / fade_compensate=0.00 / psy_rd=1.00:0.00 / mixed_ref=1 / me_range=32 / chroma_me=1 / trellis=2 / 8x8dct=1 / cqm=0 / deadzone=21,11 / fast_pskip=1 / chroma_qp_offset=-2 / threads=34 / lookahead_threads=5 / sliced_threads=0 / nr=0 / decimate=1 / interlaced=0 / bluray_compat=0 / constrained_intra=0 / bframes=9 / b_pyramid=2 / b_adapt=2 / b_bias=0 / direct=1 / weightb=1 / open_gop=0 / weightp=2 / keyint=240 / keyint_min=23 / scenecut=40 / intra_refresh=0 / rc=crf / mbtree=0 / crf=15.0000 / qcomp=0.72 / qpmin=0 / qpmax=81 / qpstep=4 / ip_ratio=1.40 / pb_ratio=1.30 / aq=1:0.85Язык : JapaneseDefault : ДаForced : НетЦветовой диапазон : LimitedОсновные цвета : BT.709Характеристики трансфера : BT.709Коэффициенты матрицы : BT.709

АудиоИдентификатор : 2Формат : FLACФормат/Информация : Free Lossless Audio CodecИдентификатор кодека : A_FLACПродолжительность : 1 ч. 33 м.Вид битрейта : ПеременныйБитрейт : 1486 Кбит/секКаналы : 2 каналаРасположение каналов : Front: L RЧастота : 48,0 КГцЧастота кадров : 11,719 кадров/сек (4096 spf)Битовая глубина : 24 битРазмер потока : 989 Мбайт (13%)Библиотека кодирования : libFLAC 1.3.2 (UTC 2017-01-01)Язык : JapaneseDefault : ДаForced : Нет

Меню00:00:00.000 : en:Avant00:10:07.523 : en:Part A00:11:41.450 : en:Part B00:15:07.865 : en:Part C00:20:00.324 : en:Part D00:23:56.101 : en:Part E00:31:35.768 : en:Part F00:36:14.714 : en:Part G00:43:57.009 : en:Part H00:53:14.399 : en:Part I00:57:32.782 : en:Part J01:03:15.333 : en:Part K01:05:36.015 : en:Part L01:12:05.404 : en:Part M01:21:00.438 : en:Part N01:23:59.451 : en:Part O01:27:08.056 : en:ED01:32:12.860 : en:Part P
Duration: 01:33:06 (5585.58) Track #1: video (BDrip by Jensen) lang: jpn (2) codc: V_MPEG4/ISO/AVC -> H264/AVC (22) reso: 1920x1080 -> 16:9 fram: 23.976 fps rate: 9931 kbps (9930.75) dura: 01:33:06 (5585.54) size: 6.46 GB (6933575472) Track #2: audio lang: jpn -> Japanese (2) codc: A_FLAC -> Other (15) chan: 2 -> Stereo samp: 48000 Hz rate: 1486 kbps (1486.01) dura: 01:33:06 (5585.58) size: 989.47 MB (1037530596) Sizes: (check sanity) disk: 7.42 GB (7972318570) trac: 3.42 GB (3676138772) [based on track size] bitr: 7.42 GB (7971098765) [based on bitrate] tdif: 4.00 GB (4296179798) 53.88% bdif: 1.16 MB (1219804) 0.01%
</div>
</div>
...5450336
1080p


Трекер:  [ 13-Сен-2017 15:01 ]

  

Скачать .torrent

Размер .torrent файла 17 KB


Размер: 10.91 GB
Хэш (hash) релиза: 7af5101eb265838d84fb4db34c1ffde874a9c36c
Подписка на обновления:

Торренты, похожие на Флотская коллекция Gekijouban KanColle скачать торрент

Форум Название Автор Размер S L Добавлен
Аниме | HD Rips ·· Флотская коллекция / Gekijouban Kantai Collection: KanColle [Movie] [Без хардсаба] [JAP, SUB] [2016, Экшен, Военный, Повседневность, Школа, BDRip] [720p] Galfimbul 15951637141.49 GB 0 0 1504854123

10:02

8-Сен-17

Еще никто не оставлял запись к записи скачать торрент Флотская коллекция Gekijouban KanColle . Будь первым!

!Обратная связь