Скачать через торрент Двойка The Deuce Фильм бесплатно в хорошем качестве torrent

Скачивайте на UnionPeer.org фильмы через торрент без регистрации. Новинки кино в хорошем качестве через торрент. На UnionPeer.org можно скачать через торрент фильмы 2014 и 2015 годов. Самые новые фильмы.

Скачать торрент Двойка The Deuce бесплатно через .torrent фильм мультфильм сериал

Если у вас наблюдаются проблемы со скриншотами, переходом по ссылками, скачиванием торрентов - проблемы в блокировщике рекламы AdBlock. #хорошегоДня!


Статистика раздачи
Размер:  1.27 GB   |    Зарегистрирован:  8 дней   |    .torrent скачан:  12 раз   |   
Раздают:  1  
   
Загрузка...
 
Автор Сообщение

Galfimbul

avatar Galfimbul


Двойка / The DeuceГод выпуска: 2017
Страна: США
Жанр: Драма
Продолжительность: 1-ая серия: 01:24:13, 2-8 серии ~01:00:00

Перевод: Субтитры FOCS

Режиссёр: Джеймс Франко, Мишель МакЛарен, Ута Бризвитц

В ролях: Джеймс Франко, Мэгги Джилленхол, Гари Карр, Маргарита Левиева, Лоуренс Гиллиард мл., Доминик Фишбэк, Эмили Мид, Гбенга Акиннагбе, Эммануль Акото, Кристофер БауэрОписание: Проект исследует беспорядочный мир секс-индустрии 1970-80х годов, процветавшей в самом сердце Манхэттена, пока появление СПИДа, распространение наркотиков и обновление рынка недвижимости не положили конец этому безумию.Релиз: Студия FOCS

Сэмпл: https://yadi.sk/i/ClTiTSs73Mr5bS

Качество: WEBRip
Формат: AVI
Видео: 720x400, 23.976 fps, XviD ~2000 kbps avg, 0.293 bit/pixel
Аудио: 48 kHz, MP3, 2/0 (L,R), ~128.00 kbps avg
Субтитры: Русские, английские

Реклама:Отсутствует
1. Pilot
2. Show and Prove
3. The Principle Is All
4. I See Money
5. What Kind of Bad?
6. Why Me?
7. Au Reservoir
8. My Name Is Ruby
Общее
Полное имя : D:\...\The Deuce - Season 1 (FOCS sub)\The.Deuce.S01E01.Pilot.WEBRip.rus.sub.FOCS-PB.avi
Формат : AVI
Формат/Информация : Audio Video Interleave
Размер файла : 1,27 Гбайт
Продолжительность : 1 ч. 24 м.
Общий поток : 2161 Кбит/сек
Программа кодирования : VirtualDubMod 1.5.10.3 | www.virtualdub-fr.org || (build 2550/release)
Библиотека кодирования : VirtualDubMod build 2550/release

Видео
Идентификатор : 0
Формат : MPEG-4 Visual
Профиль формата : Advanced Simple@L5
Параметр BVOP формата : 1
Параметр QPel формата : Нет
Параметр GMC формата : Без точки перехода
Параметр матрицы формата : Выборочная
Идентификатор кодека : DX50
Идентификатор кодека/Подсказка : DivX 5
Продолжительность : 1 ч. 24 м.
Битрейт : 2024 Кбит/сек
Ширина : 720 пикселей
Высота : 400 пикселей
Соотношение сторон : 16:9
Частота кадров : 23,976 (24000/1001) кадра/сек
Частота кадров в оригинале : 23,976 (23976/1000) кадра/сек
Цветовое пространство : YUV
Субдискретизация насыщенности : 4:2:0
Битовая глубина : 8 бит
Тип развёртки : Прогрессивная
Метод сжатия : С потерями
Бит/(Пиксели*Кадры) : 0.293
Размер потока : 1,19 Гбайт (94%)
Библиотека кодирования : XviD 1.2.1 (UTC 2008-12-04)

Аудио
Идентификатор : 1
Формат : MPEG Audio
Версия формата : Version 1
Профиль формата : Layer 3
Идентификатор кодека : 55
Идентификатор кодека/Подсказка : MP3
Продолжительность : 1 ч. 24 м.
Вид битрейта : Постоянный
Битрейт : 128 Кбит/сек
Каналы : 2 канала
Частота : 48,0 КГц
Метод сжатия : С потерями
Размер потока : 77,1 Мбайт (6%)
Выравнивание : Соединение по промежуткам
Продолжительность промежутка : 42 мс. (1,00 видеокадр)
Время предзагрузки промежутка : 504 мс.
Библиотека кодирования : LAME3.99r
Настройки программы : -m s -V 4 -q 2 -lowpass 17 -b 128


Трекер:  [ 13-Сен-2017 13:48 ]

  

Скачать .torrent

Размер .torrent файла 13 KB


Размер: 1.27 GB
Хэш (hash) релиза: 648a99af9c2a54a9a48b982f5d7ded298cc4700f
Подписка на обновления:

Еще никто не оставлял запись к записи скачать торрент Двойка The Deuce . Будь первым!

!Обратная связь