Скачать через торрент ДАЧА ТВ Календарь огородника Фильм бесплатно в хорошем качестве torrent

Скачивайте на UnionPeer.org фильмы через торрент без регистрации. Новинки кино в хорошем качестве через торрент. На UnionPeer.org можно скачать через торрент фильмы 2014 и 2015 годов. Самые новые фильмы.

Скачать торрент ДАЧА ТВ Календарь огородника бесплатно через .torrent фильм мультфильм сериал

Если у вас наблюдаются проблемы со скриншотами, переходом по ссылками, скачиванием торрентов - проблемы в блокировщике рекламы AdBlock. #хорошегоДня!


Статистика раздачи
Размер:  598 MB   |    Зарегистрирован:  12 дней   |    .torrent скачан:  0 раз   |   
Раздают:  1  
   
Загрузка...
 
Автор Сообщение

Galfimbul

avatar Galfimbul


ДАЧА ТВ / Календарь огородника [2017, цикл телепередач, HDTV-AVC 1080i]

Год выпуска: 2017
Страна: Украина
Студия: ДачаТВ
Жанр: научно-познавательный
Продолжительность: ~ 00:05:00 передача
Перевод: Не требуется
Русские субтитры: нет

Описание: Цикл передач в помощь огородникам о том, что и как лучше сделать в рассматриваемое время года на своём участке.

Материал выложен для ознакомления с контентом, транслируемым по телеканалу Дача
www.dacha.net.ua

Доп. информация:
Выпуск "23-31 августа":
- ПОМИДОРЫ фитофтороз как защитить что предпринять

Сэмпл: http://sendfile.su/1360335

Тип релиза: HDTV-AVC 1080i
Контейнер: MP4

Видео: H.264/AVC, PAL, 1920x1080i, 16:9, 15.0 Мбит/сек, 25 кадров/сек
Аудио: AAC, 2 канала, 48 КГц, 128 Кбит/сек
MediaInfoОбщееПолное имя : C:\Календарь огородника_35неделя_23-31августа\KalendarOgorodnika_35nedelja_23-31avgusta_1080i.mp4Формат : MPEG-4Профиль формата : Base MediaИдентификатор кодека : isom (isom/iso2/avc1/mp41)Размер файла : 598 МбайтПродолжительность : 5 м. 34 с.Общий поток : 15,0 Мбит/секПрограмма кодирования : Lavf56.36.100

ВидеоИдентификатор : 1Формат : AVCФормат/Информация : Advanced Video CodecПрофиль формата : High@L4.1Параметр CABAC формата : ДаПараметр RefFrames формата : 1 кадрПараметр GOP формата : M=1, N=13Идентификатор кодека : avc1Идентификатор кодека/Информация : Advanced Video CodingПродолжительность : 5 м. 34 с.Битрейт : 14,9 Мбит/секШирина : 1920 пикселейВысота : 1080 пикселейСоотношение сторон : 16:9Режим частоты кадров : ПостоянныйЧастота кадров : 25,000 кадров/секЦветовое пространство : YUVСубдискретизация насыщенности : 4:2:0Битовая глубина : 8 битТип развёртки : ПрогрессивнаяБит/(Пиксели*Кадры) : 0.287Размер потока : 593 Мбайт (99%)

АудиоИдентификатор : 2Формат : AACФормат/Информация : Advanced Audio CodecПрофиль формата : LCИдентификатор кодека : 40Продолжительность : 5 м. 33 с.Вид битрейта : ПостоянныйБитрейт : 128 Кбит/секКаналы : 2 каналаРасположение каналов : Front: L RЧастота : 48,0 КГцЧастота кадров : 46,875 кадров/сек (1024 SPF)Метод сжатия : С потерямиРазмер потока : 5,10 Мбайт (1%)Default : ДаAlternateGroup/String : 1


Трекер:  [ 13-Сен-2017 05:42 ]

  

Скачать .torrent

Размер .torrent файла 12 KB


Размер: 598 MB
Хэш (hash) релиза: a4e0db874cf9c7b054a55649f8daaf8ef4eb2562
Подписка на обновления:

Еще никто не оставлял запись к записи скачать торрент ДАЧА ТВ Календарь огородника . Будь первым!

!Обратная связь