Скачать через торрент Реллик Rellik Фильм бесплатно в хорошем качестве torrent

Скачивайте на UnionPeer.org фильмы через торрент без регистрации. Новинки кино в хорошем качестве через торрент. На UnionPeer.org можно скачать через торрент фильмы 2014 и 2015 годов. Самые новые фильмы.

Скачать торрент Реллик Rellik бесплатно через .torrent фильм мультфильм сериал

Если у вас наблюдаются проблемы со скриншотами, переходом по ссылками, скачиванием торрентов - проблемы в блокировщике рекламы AdBlock. #хорошегоДня!


Статистика раздачи
Размер:  1.95 GB   |    Зарегистрирован:  9 дней   |    .torrent скачан:  15 раз   |   
Раздают:  1  
   
Загрузка...
 
Автор Сообщение

Galfimbul

avatar Galfimbul


Реллик / Rellik

Год выпуска: 2017
Страна: Великобритания
Жанр: драма, криминал, детектив
Продолжительность: ~ 00:57:00

Перевод: Субтитры er45ty

Режиссёр: Сэм Миллер, Ханс Херботс
В ролях: Ричард Дормер, Рис Ричи, Джоди Бальфур, Киран Бью, Александр Джиллисон

Описание: Занимаясь поиском серийного убийцы, старший инспектор Маркэм и его команда пытаются определить личность преступника. Хронология событий в сериале выстраивается наоборот - из конца в начало.

Сэмпл

Качество: WEBRip 720p
Контейнер: MKV
Видео: x264, 1280x720 (16:9), 25 fps, 4282 kbps
Аудио: AC3, 48 kHz, 6 ch, 640 kbps - Eng
Субтитры: softsub (SRT) русские, английские
Реклама:
Отсутствует
Общее
Уникальный идентификатор : 221529727075333381449968219213898982695 (0xA6A912D08B4F4E7395B3167BD4AC2527)
Полное имя : E:\Video\Rellik.S01E01.720p.AMZN.WEBRip.DDP5.1.x264\Rellik.S01E01.720p.AMZN.WEBRip.DDP5.1.x264-NTb.mkv
Формат : Matroska
Версия формата : Version 4 / Version 2
Размер файла : 1,95 Гбайт
Продолжительность : 56 м. 43 с.
Общий поток : 4924 Кбит/сек
Дата кодирования : UTC 2017-09-12 00:46:50
Программа кодирования : mkvmerge v10.0.0 ('To Drown In You') 64bit
Библиотека кодирования : libebml v1.3.4 + libmatroska v1.4.5

Видео
Идентификатор : 1
Формат : AVC
Формат/Информация : Advanced Video Codec
Профиль формата : High@L4.1
Настройки формата : CABAC / 9 Ref Frames
Параметр CABAC формата : Да
Параметр RefFrames формата : 9 кадров
Идентификатор кодека : V_MPEG4/ISO/AVC
Продолжительность : 56 м. 43 с.
Битрейт : 4282 Кбит/сек
Ширина : 1280 пикселей
Высота : 720 пикселей
Соотношение сторон : 16:9
Режим частоты кадров : Постоянный
Частота кадров : 25,000 кадров/сек
Цветовое пространство : YUV
Субдискретизация насыщенности : 4:2:0
Битовая глубина : 8 бит
Тип развёртки : Прогрессивная
Бит/(Пиксели*Кадры) : 0.186
Размер потока : 1,70 Гбайт (87%)
Библиотека кодирования : x264 core 148 r2638 7599210
Настройки программы : cabac=1 / ref=9 / deblock=1:-3:-3 / analyse=0x3:0x133 / me=umh / subme=10 / psy=1 / psy_rd=1.00:0.00 / mixed_ref=1 / me_range=48 / chroma_me=1 / trellis=2 / 8x8dct=1 / cqm=0 / deadzone=21,11 / fast_pskip=0 / chroma_qp_offset=-2 / threads=12 / lookahead_threads=2 / sliced_threads=0 / nr=0 / decimate=0 / interlaced=0 / bluray_compat=0 / constrained_intra=0 / bframes=9 / b_pyramid=0 / b_adapt=2 / b_bias=0 / direct=3 / weightb=1 / open_gop=0 / weightp=2 / keyint=250 / keyint_min=25 / scenecut=40 / intra_refresh=0 / rc=crf / mbtree=0 / crf=17.0 / qcomp=0.60 / qpmin=10 / qpmax=51 / qpstep=4 / ip_ratio=1.40 / pb_ratio=1.30 / aq=3:0.70
Default : Да
Forced : Нет

Аудио
Идентификатор : 2
Формат : E-AC-3
Формат/Информация : Enhanced Audio Coding 3
Параметр Endianness формата : Big
Идентификатор кодека : A_EAC3
Продолжительность : 56 м. 43 с.
Вид битрейта : Постоянный
Битрейт : 640 Кбит/сек
Каналы : 6 каналов
Расположение каналов : Front: L C R, Side: L R, LFE
Частота : 48,0 КГц
Частота кадров : 187,500 кадров/сек (256 SPF)
Метод сжатия : С потерями
Размер потока : 260 Мбайт (13%)
Язык : English
ServiceKind/String : Complete Main
Default : Да
Forced : Нет

Текст
Идентификатор : 3
Формат : UTF-8
Идентификатор кодека : S_TEXT/UTF8
Идентификатор кодека/Информация : UTF-8 Plain Text
Продолжительность : 55 м. 37 с.
Битрейт : 112 бит/сек
ElementCount : 617
Размер потока : 45,8 Кбайт (0%)
Язык : English
Default : Нет
Forced : Нет
Внимание! Раздача ведётся путём добавления новых серий; при каждом добавлении создаётся новый торрент. Чтобы начать докачку новой серии, пользователям необходимо сделать следующее:
(1) остановить скачивание,
(2) удалить старый торрент у себя из клиента (старые серии удалять не надо),
(3) скачать новый торрент и запустить его у себя в клиенте вместо старого, при этом указать клиенту путь в старую папку куда и должно происходить скачивание новых серий.

Ваш клиент при этом должен произвести хеширование (проверку) старой папки (если не производит сам - помогите ему сделать это), и будет докачивать только те серии которых у вас ещё нет. Старые серии при этом не удаляются, а продолжают раздаваться!

Eсли вы уже удалили старые серии, то предотвратить повторную закачку старых серий можно, отжав галочку в соответствующих местах при запуске нового торрента. По возможности, желательно не удалять старые серии как можно дольше чтобы релизёр не столько продолжал раздавать старые серии, а смог сконцентрироваться на новых.


Трекер:  [ 13-Сен-2017 02:54 ]

  

Скачать .torrent

Размер .torrent файла 20 KB


Размер: 1.95 GB
Хэш (hash) релиза: dd6d1c109911483b84acefd01b8183f0bafea426
Подписка на обновления:

Торренты, похожие на Реллик Rellik скачать торрент

Форум Название Автор Размер S L Добавлен
Зарубежные сериалы ·%· Реллик / Rellik / Сезон: 1 / Серии: 1-2 из 6 (Сэм Миллер, Ханс Херботс) [2017, Великобритания, Детектив, триллер, WEBRip 720p] MVO (Good People) + Original Galfimbul 48854989604.55 GB 0 0 1506027288

23:54

21-Сен-17

Еще никто не оставлял запись к записи скачать торрент Реллик Rellik . Будь первым!

!Обратная связь