Скачать через торрент Орвилл The Orville Фильм бесплатно в хорошем качестве torrent

Скачивайте на UnionPeer.org фильмы через торрент без регистрации. Новинки кино в хорошем качестве через торрент. На UnionPeer.org можно скачать через торрент фильмы 2014 и 2015 годов. Самые новые фильмы.

Скачать торрент Орвилл The Orville бесплатно через .torrent фильм мультфильм сериал

Если у вас наблюдаются проблемы со скриншотами, переходом по ссылками, скачиванием торрентов - проблемы в блокировщике рекламы AdBlock. #хорошегоДня!


Статистика раздачи
Размер:  580 MB   |    Зарегистрирован:  9 дней   |    .torrent скачан:  28 раз   |   
Раздают:  1  
   
Загрузка...
 
Автор Сообщение

Galfimbul

avatar Galfimbul


ОрвиллThe Orville
Год выпуска: 2017
Страна: США
Жанр: Фантастика, драма, комедия
Продолжительность: ~00:45:00
Перевод: Профессиональный (многоголосый закадровый) Студия «Profix Media» Режиссёр: Брэннон Брага, Джон Кассар, Джеймс Л. Конуэй
В ролях: Сет МакФарлейн, Скотт Граймз, Пенни Джонсон, Питер Макон, Эдрианн Палики, Холстон Сейдж, Ларри Джо Кэмпбелл, Норм МакДональдОписание: 25 столетие – это время когда, человечеству перестало хватать планеты Земля, как источника еды и ресурсов, необходимых для жизни. К тому же все уголки родной планеты уже давно изучены и хочется чего-то большего – новых открытий, иных рас, необычных изобретений, которые можно будет у них выменять на свои какие-то технические достижения. Поставив за цель, ведущие умы человечества достигают ее. Им удается выйти на связь с другими разумными существами, что обитают во вселенной. Следующий шаг – это построить огромный космический корабль, который поможет покорить космические просторы и изучить все воочию. Проект получает название Орвилл и отдается под руководство молодого капитана Мерсера, у которого сейчас в жизни не самый простой период. Он разлучается с супругой, но не смотря на это не упивается горем, а старается наоборот переключиться на что-то иное и космическое путешествие подходит для этого как нельзя лучше.Доп. информация: Без рекламных ВидеоАудио вставокВсем нетерпеливым, канал на отдачу маленький.
Ныть где сид, поддайте скорости не нужно. Не нравится - идите мимо, найдите Альтернативные раздачи, без негативных комментариев здесь.
СэмплКачество: WEB-DLRip
Формат: AVI
Видео: XviD, 720x400 (16:9), 23.976 fps, ~1500 kbps
Аудио Rus: MP3, 48 kHz, 2 ch, 128 kbps
Аудио Eng: MP3, 48 kHz, 2 ch, 128 kbps
Субтитры: отсутствуют
Реклама: отсутствует
Полное имя                               : The.Orville.S01.WEB-DLRip.RusEng.ProfixMedia\The.Orville.S01E01.WEB-DLRip.RusEng.ProfixMedia.L.avi
Формат                                   : AVI
Формат/Информация                        : Audio Video Interleave
Размер файла                             : 580 Мбайт
Продолжительность                        : 45 м. 5 с.
Общий поток                              : 1800 Кбит/сек
Программа кодирования                    : VirtualDubMod 1.5.10.3 (build 2550/release)
Библиотека кодирования                   : VirtualDubMod build 2550/release

Видео
Идентификатор                            : 0
Формат                                   : MPEG-4 Visual
Профиль формата                          : Advanced Simple@L5
Параметр BVOP формата                    : 1
Параметр QPel формата                    : Нет
Параметр GMC формата                     : Без точки перехода
Параметр матрицы формата                 : Default (H.263)
Идентификатор кодека                     : XVID
Идентификатор кодека/Подсказка           : XviD
Продолжительность                        : 45 м. 5 с.
Битрейт                                  : 1530 Кбит/сек
Ширина                                   : 720 пикселей
Высота                                   : 400 пикселей
Соотношение сторон                       : 16:9
Частота кадров                           : 23,976 (24000/1001) кадра/сек
Цветовое пространство                    : YUV
Субдискретизация насыщенности            : 4:2:0
Битовая глубина                          : 8 бит
Тип развёртки                            : Прогрессивная
Метод сжатия                             : С потерями
Бит/(Пиксели*Кадры)                      : 0.222
Размер потока                            : 493 Мбайт (85%)
Библиотека кодирования                   : XviD 1.2.1 (UTC 2008-12-04)

Аудио #1
Идентификатор                            : 1
Формат                                   : MPEG Audio
Версия формата                           : Version 1
Профиль формата                          : Layer 3
Режим                                    : Joint stereo
Расширение режима                        : MS Stereo
Идентификатор кодека                     : 55
Идентификатор кодека/Подсказка           : MP3
Продолжительность                        : 45 м. 5 с.
Вид битрейта                             : Постоянный
Битрейт                                  : 128 Кбит/сек
Каналы                                   : 2 канала
Частота                                  : 48,0 КГц
Метод сжатия                             : С потерями
Размер потока                            : 41,3 Мбайт (7%)
Выравнивание                             : Соединение по промежуткам
Продолжительность промежутка             : 42  мс. (1,00 видеокадр)
Время предзагрузки промежутка            : 504  мс.

Аудио #2
Идентификатор                            : 2
Формат                                   : MPEG Audio
Версия формата                           : Version 1
Профиль формата                          : Layer 3
Режим                                    : Joint stereo
Расширение режима                        : MS Stereo
Идентификатор кодека                     : 55
Идентификатор кодека/Подсказка           : MP3
Продолжительность                        : 45 м. 5 с.
Вид битрейта                             : Постоянный
Битрейт                                  : 128 Кбит/сек
Каналы                                   : 2 канала
Частота                                  : 48,0 КГц
Метод сжатия                             : С потерями
Размер потока                            : 41,3 Мбайт (7%)
Выравнивание                             : Соединение по промежуткам
Продолжительность промежутка             : 42  мс. (1,00 видеокадр)
Время предзагрузки промежутка            : 504  мс.
Внимание! Раздача ведётся путём добавления новых серий; при каждом добавлении создаётся новый торрент. Чтобы начать докачку новой серии, пользователям необходимо сделать следующее:
(1) остановить скачивание,
(2) удалить старый торрент у себя из клиента (старые серии удалять не надо),
(3) скачать новый торрент и запустить его у себя в клиенте вместо старого, при этом указать клиенту путь в старую папку куда и должно происходить скачивание новых серий.

Ваш клиент при этом должен произвести хеширование (проверку) старой папки (если не производит сам - помогите ему сделать это), и будет докачивать только те серии которых у вас ещё нет. Старые серии при этом не удаляются, а продолжают раздаваться!

Eсли вы уже удалили старые серии, то предотвратить повторную закачку старых серий можно, отжав галочку в соответствующих местах при запуске нового торрента. По возможности, желательно не удалять старые серии как можно дольше чтобы релизёр не столько продолжал раздавать старые серии, а смог сконцентрироваться на новых.


Трекер:  [ 12-Сен-2017 23:48 ]

  

Скачать .torrent

Размер .torrent файла 12 KB


Размер: 580 MB
Хэш (hash) релиза: 4cdbf1c7d13cc145633abfa2f25eac5a7b05d28e
Подписка на обновления:

Торренты, похожие на Орвилл The Orville скачать торрент

Форум Название Автор Размер S L Добавлен
Зарубежные сериалы ·· Орвилл / The Orville / Сезон: 1 / Серии: 1 из 13 (Джон Фавро, Джон Кассар, Джеймс Л. Конуэй) [2017, США, Фантастика, драма, комедия, приключения, WEB-DL 1080p] MVO (Alternative Production) + Original Galfimbul 20414239711.9 GB 0 0 1505764495

22:54

18-Сен-17

Зарубежные сериалы ·· Орвилл / The Orville / Сезон: 1 / Серии: 1 из 13 (Брэннон Брага, Джон Кассар, Джеймс Л. Конуэй) [2017, США, Фантастика, драма, комедия, WEB-DL 1080p] MVO (LostFilm) + Original Galfimbul 42689406973.98 GB 0 0 1505388282

14:24

14-Сен-17

Зарубежные сериалы ·· Орвилл / The Orville / Сезон: 1 / Серии: 1 из 13 (Брэннон Брага, Джон Кассар, Джеймс Л. Конуэй) [2017, США, Фантастика, драма, комедия, WEB-DLRip] MVO (Jaskier) + Original Galfimbul 627806208599 MB 2 0 1505303688

14:54

13-Сен-17

Зарубежные сериалы ·· Орвилл / The Orville / Сезон: 1 / Серии: 1 из 13 (Брэннон Брага, Джон Кассар, Джеймс Л. Конуэй) [2017, США, Фантастика, драма, комедия, WEB-DL 720p] MVO (Jaskier) + Original Galfimbul 16601836931.55 GB 0 0 1505303682

14:54

13-Сен-17

Зарубежные сериалы ·· Орвилл / The Orville / Сезон: 1 / Серии: 1 из 13 (Брэннон Брага, Джон Кассар, Джеймс Л. Конуэй) [2017, США, Фантастика, драма, комедия, WEB-DL 1080p] MVO (Jaskier) + Original Galfimbul 20418828571.9 GB 2 5 1505303673

14:54

13-Сен-17

Зарубежные сериалы ·· Орвилл / The Orville / Сезон: 1 / Серии: 1 из 13 (Брэннон Брага, Джон Кассар, Джеймс Л. Конуэй) [2017, США, Комедия, фантастика, драма, WEB-DL 720p] DVO (D1) + Original Galfimbul 15938206021.48 GB 0 0 1505215561

14:26

12-Сен-17

Еще никто не оставлял запись к записи скачать торрент Орвилл The Orville . Будь первым!

!Обратная связь