: Pirates of the Caribbean: Dead Men Tell No Tales torrent

UnionPeer.org . . UnionPeer.org 2014 2015 . .

: Pirates of the Caribbean: Dead Men Tell No Tales .torrent

, , - AdBlock. #!


11.51 GB   |    :  1 9    |    .torrent :  1327    |   
34   1  
   
...
 

Galfimbul

avatar Galfimbul


: / Pirates of the Caribbean: Dead Men Tell No Tales
-
: 2017
:
: , , ,
: 02:09:07
: [ ]
: ,
: ,
: , ,
: , . .,
:
:
: , ,
: ,
: (Captain Jack Sparrow), (Captain Salazar), (Captain Hector Barbossa), (Henry Turner), (Carina Smyth), (Gibbs), (Shansa), (Scarfield), (Scrum), (Mullroy), (Marty), (Cremble)



: , , . , . , .


: BDRip 1080p
: MKV
: AVC
: AC3/DTS
: 1920x800 (2.40:1), 23.976 fps, AVC, 10.6 Mbps
: #1: AC3, 640 Kbps, 48.0 KHz, 6 ch [Rus]
#2: DTS, 1 510 Kbps, 48.0 KHz, 6 ch [ENG]

:

General
 Unique ID : 172508036687424939393308320119658694925 (0x81C7D6DFAA90551E8AFCC6A5B6C0C90D)
 Complete name : Pirates.of.the.Caribbean.Dead.Men.Tell.No.Tales.2017.BDRip.1080p.mkv
 Format : Matroska
 Format version : Version 4 / Version 2
 File size : 11.5 GiB
 Duration : 2h 9mn
 Overall bit rate : 12.8 Mbps
 Encoded date : UTC 2017-09-12 18:29:41
 Writing application : mkvmerge v15.0.0 ('Duel with the Devil') 64-bit
 Writing library : libebml v1.3.5 + libmatroska v1.4.5
 DURATION : 01:17:07.830000000
 NUMBER_OF_FRAMES : 11
 NUMBER_OF_BYTES : 404
 _STATISTICS_WRITING_APP : mkvmerge v15.0.0 ('Duel with the Devil') 64-bit
 _STATISTICS_WRITING_DATE_UTC : 2017-09-12 18:29:41
 _STATISTICS_TAGS : BPS DURATION NUMBER_OF_FRAMES NUMBER_OF_BYTES

 Video
 ID : 1
 Format : AVC
 Format/Info : Advanced Video Codec
 Format profile : <a href="mailto:High@L4.1" class="postLink">High@L4.1</a>
 Format settings, CABAC : Yes
 Format settings, ReFrames : 5 frames
 Codec ID : V_MPEG4/ISO/AVC
 Duration : 2h 9mn
 Bit rate : 10.6 Mbps
 Width : 1 920 pixels
 Height : 800 pixels
 Display aspect ratio : 2.40:1
 Frame rate mode : Constant
 Frame rate : 23.976 fps
 Color space : YUV
 Chroma subsampling : 4:2:0
 Bit depth : 8 bits
 Scan type : Progressive
 Bits/(Pixel*Frame) : 0.288
 Stream size : 9.34 GiB (81%)
 Writing library : x264 core 152 r2851 ba24899
 Encoding settings : cabac=1 / ref=5 / deblock=1:-3:-3 / analyse=0x3:0x113 / me=umh / subme=8 / psy=1 / psy_rd=1.00:0.00 / mixed_ref=1 / me_range=32 / chroma_me=1 / trellis=1 / 8x8dct=1 / cqm=0 / deadzone=21,11 / fast_pskip=1 / chroma_qp_offset=-2 / threads=24 / lookahead_threads=4 / sliced_threads=0 / nr=0 / decimate=1 / interlaced=0 / bluray_compat=0 / constrained_intra=0 / bframes=3 / b_pyramid=2 / b_adapt=2 / b_bias=0 / direct=3 / weightb=1 / open_gop=0 / weightp=2 / keyint=240 / keyint_min=24 / scenecut=40 / intra_refresh=0 / rc_lookahead=50 / rc=2pass / mbtree=1 / bitrate=10610 / ratetol=1.0 / qcomp=0.60 / qpmin=0 / qpmax=69 / qpstep=4 / cplxblur=20.0 / qblur=0.5 / ip_ratio=1.40 / aq=3:0.80
 Language : English
 Default : Yes
 Forced : No
 DURATION : 02:09:07.240000000
 NUMBER_OF_FRAMES : 185748
 NUMBER_OF_BYTES : 10274573059
 _STATISTICS_WRITING_APP : mkvmerge v15.0.0 ('Duel with the Devil') 64-bit
 _STATISTICS_WRITING_DATE_UTC : 2017-09-12 18:29:41
 _STATISTICS_TAGS : BPS DURATION NUMBER_OF_FRAMES NUMBER_OF_BYTES

 Audio #1
 ID : 2
 Format : AC-3
 Format/Info : Audio Coding 3
 Mode extension : CM (complete main)
 Format settings, Endianness : Big
 Codec ID : A_AC3
 Duration : 2h 9mn
 Bit rate mode : Constant
 Bit rate : 640 Kbps
 Channel(s) : 6 channels
 Channel positions : Front: L C R, Side: L R, LFE
 Sampling rate : 48.0 KHz
 Bit depth : 16 bits
 Compression mode : Lossy
 Stream size : 591 MiB (5%)
 Language : Russian
 Default : Yes
 Forced : No
 DURATION : 02:09:07.243000000
 NUMBER_OF_FRAMES : 726304
 NUMBER_OF_BYTES : 1461323648
 _STATISTICS_WRITING_APP : mkvmerge v15.0.0 ('Duel with the Devil') 64-bit
 _STATISTICS_WRITING_DATE_UTC : 2017-09-12 18:29:41
 _STATISTICS_TAGS : BPS DURATION NUMBER_OF_FRAMES NUMBER_OF_BYTES

 Audio #2
 ID : 3
 Format : DTS
 Format/Info : Digital Theater Systems
 Codec ID : A_DTS
 Duration : 2h 9mn
 Bit rate mode : Constant
 Bit rate : 1 510 Kbps
 Channel(s) : 6 channels
 Channel positions : Front: L C R, Side: L R, LFE
 Sampling rate : 48.0 KHz
 Bit depth : 24 bits
 Compression mode : Lossy
 Stream size : 1.36 GiB (12%)
 Language : English
 Default : No
 Forced : No
 DURATION : 01:55:13.364000000
 NUMBER_OF_FRAMES : 1435
 NUMBER_OF_BYTES : 39151
 _STATISTICS_WRITING_APP : mkvmerge v15.0.0 ('Duel with the Devil') 64-bit
 _STATISTICS_WRITING_DATE_UTC : 2017-09-12 18:29:41
 _STATISTICS_TAGS : BPS DURATION NUMBER_OF_FRAMES NUMBER_OF_BYTES

 Text #1
 ID : 4
 Format : UTF-8
 Codec ID : S_TEXT/UTF8
 Codec ID/Info : UTF-8 Plain Text
 Language : Russian
 Default : Yes
 Forced : No
 DURATION : 02:07:54.167000000
 NUMBER_OF_FRAMES : 1772
 NUMBER_OF_BYTES : 46849
 _STATISTICS_WRITING_APP : mkvmerge v15.0.0 ('Duel with the Devil') 64-bit
 _STATISTICS_WRITING_DATE_UTC : 2017-09-12 18:29:41
 _STATISTICS_TAGS : BPS DURATION NUMBER_OF_FRAMES NUMBER_OF_BYTES

 Text #2
 ID : 5
 Format : UTF-8
 Codec ID : S_TEXT/UTF8
 Codec ID/Info : UTF-8 Plain Text
 Language : Russian
 Default : No
 Forced : No

 Text #3
 ID : 6
 Format : UTF-8
 Codec ID : S_TEXT/UTF8
 Codec ID/Info : UTF-8 Plain Text
 Language : English
 Default : No
 Forced : No

 Text #4
 ID : 7
 Format : UTF-8
 Codec ID : S_TEXT/UTF8
 Codec ID/Info : UTF-8 Plain Text
 Title : SDH
 Language : English
 Default : No
 Forced : No

 Menu
 00:00:00.000 : en:00:00:00.000
 00:05:49.516 : en:00:05:49.516
 00:08:34.222 : en:00:08:34.222
 00:13:40.820 : en:00:13:40.820
 00:16:29.155 : en:00:16:29.155
 00:22:33.852 : en:00:22:33.852
 00:25:19.268 : en:00:25:19.268
 00:28:06.101 : en:00:28:06.101
 00:31:41.775 : en:00:31:41.775
 00:33:44.814 : en:00:33:44.814
 00:37:02.053 : en:00:37:02.053
 00:42:27.712 : en:00:42:27.712
 00:49:09.071 : en:00:49:09.071
 00:54:00.279 : en:00:54:00.279
 00:57:19.394 : en:00:57:19.394
 01:00:38.718 : en:01:00:38.718
 01:08:29.939 : en:01:08:29.939
 01:11:57.021 : en:01:11:57.021
 01:16:50.940 : en:01:16:50.940
 01:19:27.471 : en:01:19:27.471
 01:25:04.808 : en:01:25:04.808
 01:27:42.174 : en:01:27:42.174
 01:31:43.790 : en:01:31:43.790
 01:38:22.814 : en:01:38:22.814
 01:42:36.776 : en:01:42:36.776
 01:47:23.562 : en:01:47:23.562
 01:52:58.689 : en:01:52:58.689
 01:59:09.934 : en:01:59:09.934 

, , , , , .

, , , . .

.

- , , , . , -. , .

.

, .

.

17 2015 . . 30 15 2015 . , - , Raby Bay . Lennox Head 1 . 21 23 .

, , : .

, , .

: $230 000 000
: $172 447 788
: + $621 255 576 = $793 703 364
: $39 035 481
: 9
(): 11 2017
(): 25 2017
DVD: 19 2017, û
Blu-Ray: 19 2017, û
MPAA: 13





 ·  , , FAQ-
:  [ 12--2017 23:45 ]

  

.torrent

.torrent 58 KB


: 11.51 GB
(hash) : 86afa2a4b31c6d400f5b628479f051f2b2141ba0
:
··
...

, : Pirates of the Caribbean: Dead Men Tell No Tales

S L
··  : / Pirates of the Caribbean: Dead Men Tell No Tales ( , ) [2017, | | | , BDRip 720p] Galfimbul 17996299801.68 GB 0 0 1506163683

13:48

23--17

2016-2017 ( ) ··  : / Pirates of the Caribbean: Dead Men Tell No Tales (2017) BDRip 1080p Ash61| 3D-Video | halfOU Galfimbul 1541897560214.36 GB 4 0 1506093634

18:20

22--17

2016-2017 ( ) ··  : / Pirates of the Caribbean: Dead Men Tell No Tales (2017) BDRip-HEVC 1080p | D Galfimbul 83833402927.81 GB 6 0 1505410213

20:30

14--17

2016-2017 ( ) ··  : / Pirates of the Caribbean: Dead Men Tell No Tales (2017) BDRip 720p ExKinoRay | Galfimbul 60840105875.67 GB 8 0 1505340015

01:00

14--17

2016-2017 ( ) ··  : / Pirates of the Caribbean: Dead Men Tell No Tales ( / Joachim Rønning, / Espen Sandberg) [2017, , , BDRip] Dub + Sub Rus, Eng + Original Eng Galfimbul 23428481722.18 GB 4 0 1505325676

21:01

13--17

2016 ··  : / Pirates of the Caribbean: Dead Men Tell No Tales ( , / Joachim Rønning, Espen Sandberg) [2017, , , Blu-ray disc 1080p] [EUR] Dub + Sub Rus, Eng Galfimbul 4535936274842.24 GB 0 0 1505306318

15:38

13--17

2016-2017 ( ) ··  : / Pirates of the Caribbean: Dead Men Tell No Tales ( / Joachim Roenning, / Espen Sandberg) [2017, , , , , BDRip-AVC] Dub +Sub (rus) Galfimbul 23251947462.17 GB 3 0 1505305825

15:30

13--17

2016-2017 ( ) ··  : / Pirates of the Caribbean: Dead Men Tell No Tales ( / Joachim Roenning, / Espen Sandberg) [2017, , , , , , HDRip] Dub Galfimbul 15634452481.46 GB 7 0 1505304096

15:01

13--17

2016-2017 ( ) ··  : / Pirates of the Caribbean: Dead Men Tell No Tales ( / Joachim Ronning, / Espen Sandberg) [2017, , , , BDRip] Dub + Original Eng + Sub Rus, Eng Galfimbul 31304805102.92 GB 0 0 1505304086

15:01

13--17

2016-2017 ( ) ··  : / Pirates of the Caribbean: Dead Men Tell No Tales ( / Joachim Roenning, / Espen Sandberg) [2017, , , , BDRip-AVC] Dub + Original +Sub (rus, eng) Galfimbul 46391916834.32 GB 2 0 1505304073

15:01

13--17

2016-2017 ( ) ··  : / Pirates of the Caribbean: Dead Men Tell No Tales ( , ) [2017, , , , , Blu-Ray Remux 1080p] [] Galfimbul 3492488316832.53 GB 0 0 1505292398

11:46

13--17

2016-2017 ( ) ··  : / Pirates of the Caribbean: Dead Men Tell No Tales ( , ) [2017 ., , , , , HDRip] DUB | Galfimbul 22040842242.05 GB 3 1 1505292255

11:44

13--17

2016-2017 ( ) ··  : / Pirates of the Caribbean: Dead Men Tell No Tales ( , ) [2017 ., , , , , HDRip] DUB | Galfimbul 14668390401.37 GB 0 0 1505249085

23:44

12--17

2016-2017 ( ) ··  : / Pirates of the Caribbean: Dead Men Tell No Tales ( , ) [2017 ., , , , , BDRip 720p] DUB | Galfimbul 76618251117.14 GB 2 7 1505249078

23:44

12--17

2016-2017 ( ) ··  : / Pirates of the Caribbean: Dead Men Tell No Tales ( , ) [2017 ., , , , , BDRip 1080p ] DUB [ ] Galfimbul 1131271166010.54 GB 0 0 1505249067

23:44

12--17

2016-2017 ( ) ··  : / Pirates of the Caribbean: Dead Men Tell No Tales ( , ) [2017 ., , , , , WEB-DL 1080p] [MUZOBOZ] Galfimbul 52332187894.87 GB 7 0 1504816383

23:33

7--17

2016-2017 ( ) ··  : / Pirates of the Caribbean: Dead Men Tell No Tales ( , ) [2017 ., , , , , WEB-DLRip] [MUZOBOZ] Galfimbul 21733757982.02 GB 3 0 1504816375

23:32

7--17

2016-2017 ( ) ··  : / Pirates of the Caribbean: Dead Men Tell No Tales ( , ) [2017 ., , , , , WEB-DLRip] [MUZOBOZ] Galfimbul 14494459761.35 GB 2 0 1504816373

23:32

7--17

··  : / Pirates of the Caribbean: Dead Men Tell No Tales ( , ) [2017, , , , , HDRip] Galfimbul 508925389485 MB 0 0 1480440043

20:20

29--16

: Pirates of the Caribbean: Dead Men Tell No Tales . !

!