Скачать через торрент Свинарка и пастух Фильм бесплатно в хорошем качестве torrent

Скачивайте на UnionPeer.org фильмы через торрент без регистрации. Новинки кино в хорошем качестве через торрент. На UnionPeer.org можно скачать через торрент фильмы 2014 и 2015 годов. Самые новые фильмы.

Скачать торрент Свинарка и пастух бесплатно через .torrent фильм мультфильм сериал

Если у вас наблюдаются проблемы со скриншотами, переходом по ссылками, скачиванием торрентов - проблемы в блокировщике рекламы AdBlock. #хорошегоДня!


Статистика раздачи
Размер:  4.1 GB   |    Зарегистрирован:  9 дней   |    .torrent скачан:  0 раз   |   
Раздают:  1  
   
Загрузка...
 
Автор Сообщение

Galfimbul

avatar Galfimbul


Свинарка и пастух

Страна: СССР
Жанр: мюзикл, мелодрама
Год выпуска: 1941
Продолжительность: 01:22:51

Перевод: Оригинал
Субтитры: нет
Оригинальная аудиодорожка: русская

Режиссер: Иван Пырьев

В ролях: Марина Ладынина, Владимир Зельдин, Николай Крючков, Никита Китаев, Григорий Алексеев, Е. Счастливцева, Осип Абдулов, Тихон Хренников, Татьяна Говоркова, Татьяна Барышева

Описание: Скромную вологодскую свинарку Глашу Новикову посылают в Москву на Всесоюзную сельскохозяйственную выставку. Здесь она встречается с дагестанским пастухом Мусаибом Гатуевым. Расставаясь, Глаша и Мусаиб обещают писать друг другу и встретиться на выставке через год. Но на их пути встает конюх Кузьма, тоже влюблённый в Глашу.

Меню: есть, анимированное

Тип релиза: DVD5
Контейнер: DVD-Video

Видео: PAL 4:3 (720x576(0.644)) MPEG Video, 25,000 кадр/сек, 6681 Кбит/сек
Аудио: Russian (Dolby AC-3, 2ch) 224 Кбит/сек, 48.0 КГц
Общее
Полное имя : svinarka\VIDEO_TS\VTS_01_1.VOB
Формат : MPEG-PS
Размер файла : 900 Мбайт
Продолжительность : 17 м. 52 с.
Режим общего битрейта : Переменный
Общий поток : 7045 Кбит/сек

Видео
Идентификатор : 224 (0xE0)
Формат : MPEG Video
Версия формата : Version 2
Профиль формата : Main@Main
Параметр BVOP формата : Да
Параметр матрицы формата : Выборочная
Параметр GOP формата : M=3, N=15
Структура изображения : Frame
Продолжительность : 17 м. 52 с.
Вид битрейта : Переменный
Битрейт : 6681 Кбит/сек
Максимальный битрейт : 8000 Кбит/сек
Ширина : 720 пикселей
Высота : 576 пикселей
Соотношение сторон : 4:3
Частота кадров : 25,000 кадров/сек
Стандарт вещания : PAL
Цветовое пространство : YUV
Субдискретизация насыщенности : 4:2:0
Битовая глубина : 8 бит
Тип развёртки : Чересстрочная
Порядок развёртки : Верхнее поле первое
Метод сжатия : С потерями
Бит/(Пиксели*Кадры) : 0.644
Временной код первого кадра : 00:00:00:00
Оригинал временного кода : Group of pictures header
GOP, открыто/закрыто : Открыто
GOP, открыто/закрыто на первом кадре : Закрыто
Размер потока : 854 Мбайт (95%)
Основные цвета : BT.601 NTSC
Характеристики трансфера : BT.601
Коэффициенты матрицы : BT.601

Аудио
Идентификатор : 189 (0xBD)-128 (0x80)
Формат : AC-3
Формат/Информация : Audio Coding 3
Параметр Endianness формата : Big
Режим смешивания : DVD-Video
Продолжительность : 17 м. 51 с.
Вид битрейта : Постоянный
Битрейт : 224 Кбит/сек
Каналы : 2 канала
Расположение каналов : Front: L R
Частота : 48,0 КГц
Частота кадров : 31,250 кадров/сек (1536 spf)
Битовая глубина : 16 бит
Метод сжатия : С потерями
Размер потока : 28,6 Мбайт (3%)
ServiceKind/String : Complete Main


Трекер:  [ 12-Сен-2017 21:06 ]

  

Скачать .torrent

Размер .torrent файла 11 KB


Размер: 4.1 GB
Хэш (hash) релиза: 4665bbbe7c6517928c615fd22a27e75d69176fc2
Подписка на обновления:

Еще никто не оставлял запись к записи скачать торрент Свинарка и пастух . Будь первым!

!Обратная связь