Скачать через торрент Срок давности Серии: 1-4 из 4 Фильм бесплатно в хорошем качестве torrent

Скачивайте на UnionPeer.org фильмы через торрент без регистрации. Новинки кино в хорошем качестве через торрент. На UnionPeer.org можно скачать через торрент фильмы 2014 и 2015 годов. Самые новые фильмы.

Скачать торрент Срок давности Серии: 1-4 из 4 бесплатно через .torrent фильм мультфильм сериал

Если у вас наблюдаются проблемы со скриншотами, переходом по ссылками, скачиванием торрентов - проблемы в блокировщике рекламы AdBlock. #хорошегоДня!


Статистика раздачи
Размер:  4.1 GB   |    Зарегистрирован:  2 месяца 10 дней   |    .torrent скачан:  22 раза   |   
Раздают:  1  
   
Загрузка...
 
Автор Сообщение

Galfimbul

avatar Galfimbul


Срок давности

Год выпуска: 2017
Производство: Приор Продакшн
Жанр: детектив, мелодрама
Продолжительность: ~00:43:00 серия
Субтитры: нет

Режиссёр: Максим Демченко

В ролях: Дарья Румянцева, Владимир Колганов, Сергей Радченко, Юлия Кудояр, Ольга Морозова, Евгений Авдеенко

Описание: Учительница Александра счастлива с мужем Антоном и дочкой Машей, любит свою работу. Жизнь её омрачена только нехваткой денег и нелюбовью свекрови. Когда у Антона начинаются проблемы на работе, Александра, чтобы помочь мужу, устраивается репетитором в богатую семью. Придя на очередной урок, Саша обнаруживает тело матери своей ученицы рядом с открытым пустым сейфом. Испугавшись обвинений, женщина убегает, но вскоре к ней домой является полиция и находит в Сашиных вещах драгоценности покойной...

Реклама: Нет.

Все раздачи сериала
Sample

Качество: WEBRip 1080p
Формат: MKV
Видео кодек: H.264
Аудио кодек: AC3
Видео: MPEG4 AVC Video, H264, 16:9, 1920x1080, 25 fps, ~3000 kbps, 0.058 bit/pixel
Аудио: AC3 Dolby Digital, 44,1 kHz, 2/0 (L,R) ch, 192 kbps
General
Unique ID : 14152690081660036112090426069942097647 (0xAA5B57E8BCCB53B4E288A8D979556EF)
Complete name : E:\Срок давности 2017\Срок давности. 1 серия.by.Алехаndr.mkv
Format : Matroska
Format version : Version 4 / Version 2
File size : 1.00 GiB
Duration : 43mn 53s
Overall bit rate : 3 267 Kbps
Writing application : Lavf57.71.100
Writing library : Lavf57.71.100

Video
ID : 1
Format : AVC
Format/Info : Advanced Video Codec
Format profile : High@L4.0
Format settings, CABAC : Yes
Format settings, ReFrames : 2 frames
Codec ID : V_MPEG4/ISO/AVC
Duration : 43mn 53s
Bit rate : 3 010 Kbps
Width : 1 920 pixels
Height : 1 080 pixels
Display aspect ratio : 16:9
Frame rate mode : Constant
Frame rate : 25.000 fps
Color space : YUV
Chroma subsampling : 4:2:0
Bit depth : 8 bits
Scan type : Progressive
Bits/(Pixel*Frame) : 0.058
Stream size : 945 MiB (92%)
Default : Yes
Forced : No
DURATION : 00:43:53.160000000
Color primaries : BT.709
Transfer characteristics : BT.709
Matrix coefficients : BT.709

Audio
ID : 2
Format : AC-3
Format/Info : Audio Coding 3
Mode extension : CM (complete main)
Format settings, Endianness : Big
Codec ID : A_AC3
Duration : 43mn 53s
Bit rate mode : Constant
Bit rate : 192 Kbps
Channel count : 2 channels
Channel positions : Front: L R
Sampling rate : 44.1 KHz
Bit depth : 16 bits
Compression mode : Lossy
Delay relative to video : 1mn 5s
Stream size : 60.3 MiB (6%)
Language : unknown
Default : Yes
Forced : No
DURATION : 00:43:53.142000000


Трекер:  [ 12-Сен-2017 20:48 ]

  

Скачать .torrent

Размер .torrent файла 21 KB


Размер: 4.1 GB
Хэш (hash) релиза: 7890dfc694d0b203e512fe16380155f27a4fed26
Подписка на обновления:

Еще никто не оставлял запись к записи скачать торрент Срок давности Серии: 1-4 из 4 . Будь первым!

!Обратная связь