Скачать через торрент Удар крови: Королевство валькирии бесплатно Аниме Все серии на русском torrent

Если у вас наблюдаются проблемы со скриншотами, переходом по ссылками, скачиванием торрентов - проблемы в блокировщике рекламы AdBlock. #хорошегоДня!


Статистика раздачи
Размер:  5.4 GB   |    Зарегистрирован:  2 месяца 8 дней   |    .torrent скачан:  28 раз   |   
Раздают:  1  
   
Загрузка...
 
Автор Сообщение

Galfimbul

avatar Galfimbul


Страна: Япония
Год выпуска: 2015 г.
Жанр: фэнтези, школа, сёнэн.
Тип: OVA.
Продолжительность: 2 эпизода по ~24 мин.
Выпуск: с 25 нояб. 2015 г. по 23 дек. 2015 г.
Режиссер: Ямамото Хедэё.
Студия: Silver Link.Перевод:

Русские субтитры от [LeDi-MaHo Team] (полные/вспомогательные) | Внешние.

переводчик: MantisFL, редактор/оформление: Holydarkness

Описание:

Действие происходит в альтернативной реальности, где давно признано существование демонов; в тихом океане есть даже остров — «Итогамидзима», где демоны являются полноценными гражданами и обладают равными с людьми правами. Однако существуют и люди-маги, которые ведут охоту на них, в частности, на вампиров. Обыкновенный японский школьник по имени Акацуки Кодзё по непонятной причине превратился в «чистокровного вампира», четвёртого по числу. За ним начинает следовать молодая девушка Химэраки Юкина, или «шаман клинка», которая должна следить за Акацуки и убить его в случае, если он выйдет из под контроля.Strike – один из самых многозначных английских глаголов, но, учитывая сюжет, название сериала можно понять как «Зажги кровь!»Два дополнительных эпизода оригинального аниме-сериала «Strike the Blood», выпущенные на DVD и Blu-Ray дисках.
Качество: BDRip 1080p.
Тип релиза: Без хардсаба
Формат видео: MKV
Наличие линковки: Нет.
Релиз/Автор рипа: [Beatrice-Raws] - Jensen.Видео: H.264, Hi10p, 1920x1080, ~9900 kbps, 23.976 fps.
Аудио#1: Jp, FLAC, 48 kHz (int), ~1468 kbps, 2ch.
Аудио#2: RU - AAC, 48 KHz, 16 bits, 192 kbps, 2ch. |Многоголосый закадровый, Anilibria|
Аудио#3: RU, FLAC, 48 kHz (int), ~867 kbps, 2ch. |Двухголосый закадровый, Onibaku_Group|
Аудио#4: RU - AAC, 48 KHz, 16 bits, ~165 kbps, 2ch. |Двухголосый закадровый, SHIZA-project|
Аудио#5: Jp, FLAC, 48 kHz, ~1303 kbps, 2ch. |AudioCommentary.|
трёхголосая от Lupin & Mikrobelka & Aemi (Anilibria).
двухголосая от Eladiel & Zendos. (Onibaku_Group)
двухголосая от Snowly & Hekomi (SHIZA-project)
<div class="sp-wrap">
<div class="sp-head folded">AvDump</div>
<div class="sp-body">

File: Q:\!АНИМЕ!\[Beatrice-Raws] Strike the Blood - Valkyria no Oukoku-hen (Vol 1-2) [BDRip 1920x1080 x264 FLAC]\[Beatrice-Raws] Strike the Blood - Valkyria no Oukoku-hen 01 [BDRip 1920x1080 x264 FLAC].mkv Duration: 00:23:17 (1397.4) Track #1: video (BDrip by Jensen) lang: jpn (2) codc: V_MPEG4/ISO/AVC -> H264/AVC (22) reso: 1920x1080 -> 16:9 fram: 23.976 fps rate: 9900 kbps (9899.89) dura: 00:23:17 (1397.35) size: 1.61 GB (1729205722) Track #2: audio lang: jpn -> Japanese (2) codc: A_FLAC -> Other (15) chan: 2 -> Stereo samp: 48000 Hz rate: 1468 kbps (1468.45) dura: 00:23:17 (1397.16) size: 244.58 MB (256458579) Sizes: (check sanity) disk: 1.85 GB (1985974387) trac: 1.85 GB (1985664301) [based on track size] bitr: 1.85 GB (1985699229) [based on bitrate] tdif: 302.82 KB (310086) 0.01% bdif: 268.71 KB (275157) 0.01%
GeneralUnique ID : 239850299712972926624385309539171653473 (0xB4717CC8C924392D99DB340099655761)Complete name : Q:\!АНИМЕ!\[Beatrice-Raws] Strike the Blood - Valkyria no Oukoku-hen (Vol 1-2) [BDRip 1920x1080 x264 FLAC]\[Beatrice-Raws] Strike the Blood - Valkyria no Oukoku-hen 01 [BDRip 1920x1080 x264 FLAC].mkvFormat : MatroskaFormat version : Version 4 / Version 2File size : 1.85 GiBDuration : 23mn 17sOverall bit rate mode : VariableOverall bit rate : 11.4 MbpsEncoded date : UTC 2017-01-21 01:59:45Writing application : mkvmerge v7.1.0 ('Good Love') 64bit built on Jul 27 2014 13:06:55Writing library : libebml v1.3.0 + libmatroska v1.4.1

VideoID : 1Format : AVCFormat/Info : Advanced Video CodecFormat profile : High 10@L5Format settings, CABAC : YesFormat settings, ReFrames : 4 framesCodec ID : V_MPEG4/ISO/AVCDuration : 23mn 17sBit rate : 9 900 KbpsWidth : 1 920 pixelsHeight : 1 080 pixelsDisplay aspect ratio : 16:9Frame rate mode : ConstantFrame rate : 23.976 (24000/1001) fpsColor space : YUVChroma subsampling : 4:2:0Bit depth : 10 bitsScan type : ProgressiveBits/(Pixel*Frame) : 0.199Stream size : 1.61 GiB (87%)Title : BDrip by JensenWriting library : x264 core 148 r2597M e86f3a1 (DJATOM's build)Encoding settings : cabac=1 / ref=4 / deblock=1:1:-1 / analyse=0x3:0x113 / me=umh / subme=9 / psy=1 / fade_compensate=0.00 / psy_rd=1.00:0.00 / mixed_ref=1 / me_range=32 / chroma_me=1 / trellis=2 / 8x8dct=1 / cqm=0 / deadzone=21,11 / fast_pskip=1 / chroma_qp_offset=-2 / threads=34 / lookahead_threads=5 / sliced_threads=0 / nr=0 / decimate=1 / interlaced=0 / bluray_compat=0 / constrained_intra=0 / bframes=9 / b_pyramid=2 / b_adapt=2 / b_bias=0 / direct=1 / weightb=1 / open_gop=0 / weightp=2 / keyint=240 / keyint_min=23 / scenecut=40 / intra_refresh=0 / rc=crf / mbtree=0 / crf=15.0000 / qcomp=0.72 / qpmin=0 / qpmax=81 / qpstep=4 / ip_ratio=1.40 / pb_ratio=1.30 / aq=1:0.85Language : JapaneseDefault : YesForced : NoColor range : LimitedColor primaries : BT.709Transfer characteristics : BT.709Matrix coefficients : BT.709

AudioID : 2Format : FLACFormat/Info : Free Lossless Audio CodecCodec ID : A_FLACDuration : 23mn 17sBit rate mode : VariableBit rate : 1 468 KbpsChannel(s) : 2 channelsChannel positions : Front: L RSampling rate : 48.0 KHzFrame rate : 11.719 fps (4096 spf)Bit depth : 24 bitsStream size : 245 MiB (13%)Writing library : libFLAC 1.3.1 (UTC 2014-11-25)Language : JapaneseDefault : YesForced : No

Menu00:00:00.000 : en:Avant00:02:07.002 : en:OP00:03:37.008 : en:Part A00:11:24.017 : en:Part B00:21:46.055 : en:ED
</div>
</div>
01. Kingdom of The Valkyrja I
02. Empire Of The Dawn
Сопротивление крови / Удар крови / Strike the Blood [OVA] [2 из 2] [Без хардсаба] [JAP, SUB] [2015, фэнтези, школа, сёнэн, , BDRip] [720p] -
Сопротивление крови / Удар крови / Strike the Blood [OVA] [2 из 2] [Без хардсаба] [JAP, SUB] [2015, фэнтези, школа, сёнэн, BDRip] [720p] -
Сопротивление крови / Удар крови / Strike the Blood (Ямамото Хидэё) [OVA] [2 из 2] [Без хардсаба] [JAP+SUB] [2015, фэнтези, школа, сёнэн, BDRemux] [1080p]
- BDRip 1080p.
Сопротивление крови / Удар крови / Strike the Blood (Ямамото Хидэё) [OVA] [2 из 2] [Без хардсаба] [JAP+SUB] [2015, фэнтези, школа, сёнэн, , BDRip] [1080p] -
- русская озвучка.
Доп. информация: Официальный сайт || Anime News Network || World Art || MyAnimeList || AniDB || Wikipedia

Трекер:  [ 12-Сен-2017 20:01 ]

  

Скачать .torrent

Размер .torrent файла 15 KB


Размер: 5.4 GB
Хэш (hash) релиза: faf1d21e043c40c0773d6af634a20006886adc3c
Подписка на обновления:

Еще никто не оставлял запись к записи скачать торрент Удар крови: Королевство валькирии . Будь первым!

!Обратная связь