Скачать через торрент Папины дочки Серии: 206-296 из ? Фильм бесплатно в хорошем качестве torrent

Скачивайте на UnionPeer.org фильмы через торрент без регистрации. Новинки кино в хорошем качестве через торрент. На UnionPeer.org можно скачать через торрент фильмы 2014 и 2015 годов. Самые новые фильмы.

Скачать торрент Папины дочки Серии: 206-296 из ? бесплатно через .torrent фильм мультфильм сериал

Если у вас наблюдаются проблемы со скриншотами, переходом по ссылками, скачиванием торрентов - проблемы в блокировщике рекламы AdBlock. #хорошегоДня!


Статистика раздачи
Размер:  22.43 GB   |    Зарегистрирован:  7 дней   |    .torrent скачан:  3 раза   |   
Раздают:  1  
   
Загрузка...
 
Автор Сообщение

Galfimbul

avatar Galfimbul


Папины дочки

Год выпуска: 2011
Производство: СТС и продюсерская компания «Киноконстанта»
Жанр: Ситком
Продолжительность: ~ 24 мин
Субтитры: Нет

Режиссёр: Сергей Алдонин, Александр Жигалкин

В ролях: Андрей Леонов, Нонна Гришаева, Мирослава Карпович, Анастасия Сиваева, Дарья Мельникова, Елизавета Арзамасова, Екатерина Старшова, Ольга Волкова, Александр Самойленко, Татьяна Орлова, Мария Сёмкина, Александр Олешко, Михаил Казаков, Анна Димова, Нина Персиянинова, Филипп Бледный и др.

Описание: В плачевном положении оказался главный герой – практикующий психотерапевт по вопросам семейных отношений Сергей Васнецов: его бросила жена. И не просто бросила, а оставила на его попечении пять разновозрастных дочек.
Папины дочки не отчаиваются из-за навалившихся проблем. Удача неожиданно улыбнётся Васнецову голливудской улыбкой Оксаны, жены олигарха с Рублёвки. У Оксаны есть всё, кроме семейного счастья. Васнецов решит проблему богатой клиентки, а она, в свою очередь, поможет давшему трещину семейному кораблю Васнецовых удержаться наплаву и откроет перед ним новые горизонты.

Реклама: Есть.

Все раздачи сериала:
Семпл: http://multi-up.com/1168079

Качество: SATRip
Формат: AVI
Видео кодек: XviD
Аудио кодек: MP3
Видео: 640x480 (1.33:1), 25 fps, ~1331 kbps avg, 0.17 bit/pixel
Аудио: 48 kHz, MPEG Layer 3, 2 ch, ~128.00 kbps avg
Формат : AVI
Формат/Информация : Audio Video Interleave
Размер файла : 250 Мбайт
Продолжительность : 23 м. 36 с.
Общий поток : 1479 Кбит/сек

Видео
Идентификатор : 0
Формат : MPEG-4 Visual
Профиль формата : Advanced Simple@L5
Настройки формата : BVOP2
Параметр BVOP формата : 2
Параметр QPel формата : Нет
Параметр GMC формата : Без точки перехода
Параметр матрицы формата : Default (H.263)
Идентификатор кодека : XVID
Идентификатор кодека/Подсказка : XviD
Продолжительность : 23 м. 36 с.
Битрейт : 1373 Кбит/сек
Ширина : 640 пикселей
Высота : 480 пикселей
Соотношение сторон : 4:3
Частота кадров : 25,000 кадров/сек
Цветовое пространство : YUV
Субдискретизация насыщенности : 4:2:0
Битовая глубина : 8 бит
Тип развёртки : Прогрессивная
Метод сжатия : С потерями
Бит/(Пиксели*Кадры) : 0.179
Размер потока : 232 Мбайт (93%)
Библиотека кодирования : XviD 1.2.1 (UTC 2008-12-04)

Аудио
Идентификатор : 1
Формат : MPEG Audio
Версия формата : Version 1
Профиль формата : Layer 3
Идентификатор кодека : 55
Идентификатор кодека/Подсказка : MP3
Продолжительность : 23 м. 36 с.
Вид битрейта : Постоянный
Битрейт : 96,0 Кбит/сек
Каналы : 1 канал
Частота : 48,0 КГц
Метод сжатия : С потерями
Размер потока : 16,2 Мбайт (6%)
Выравнивание : Соединение по промежуткам
Продолжительность промежутка : 40 мс. (1,00 видеокадр)
Время предзагрузки промежутка : 504 мс.


Трекер:  [ 12-Сен-2017 18:18 ]

  

Скачать .torrent

Размер .torrent файла 119 KB


Размер: 22.43 GB
Хэш (hash) релиза: d896e6a9cc66c5811f85b4380772307d589463a3
Подписка на обновления:

Еще никто не оставлял запись к записи скачать торрент Папины дочки Серии: 206-296 из ? . Будь первым!

!Обратная связь