Скачать через торрент Мир танцев World of Dance Фильм бесплатно в хорошем качестве torrent

Скачивайте на UnionPeer.org фильмы через торрент без регистрации. Новинки кино в хорошем качестве через торрент. На UnionPeer.org можно скачать через торрент фильмы 2014 и 2015 годов. Самые новые фильмы.

Скачать торрент Мир танцев World of Dance бесплатно через .torrent фильм мультфильм сериал

Если у вас наблюдаются проблемы со скриншотами, переходом по ссылками, скачиванием торрентов - проблемы в блокировщике рекламы AdBlock. #хорошегоДня!


Статистика раздачи
Размер:  3.33 GB   |    Зарегистрирован:  2 месяца 12 дней   |    .torrent скачан:  6 раз   |   
Раздают:  1  
   
Загрузка...
 
Автор Сообщение

Galfimbul

avatar Galfimbul


Мир танцев / World of Dance

Год выпуска: 2017
Страна: США
Жанр: Танцевальное шоу, танцы
Продолжительность: 10 эп. х ~ 00:42:00
Режиссёр: Райан Соммер
Перевод: Любительский (двухголосый закадровый) [GoldTeam] l Сэмпл
Реклама: Нет
Русские субтитры: нет
Оригинальная аудиодорожка: нет
Телеканал: NBC
В ролях: Дженна Татум, Дерек Хок, Дженифер Лопез, Ни Йо, Роджер Крейг Смит.

Описание: В телевизионной передаче зрители смогут насладиться танцами своих любимцев-актеров и других знаменитостей. А сражаться выступающие будут за очень серьезный приз. Победитель получит один миллион долларов в качестве награды, а также звание лучшего танцора в мире. Однако для этого участникам шоу придется приложить максимум усилий и стараний. Каждое выступление будут оценивать очень строгие и профессиональные судьи, во главе стоит сама Дженнифер Лопес. Танцор должен набрать как минимум 80 баллов из 100 возможных, чтобы попасть в следующий раунд и продолжить бороться за участие в финале. Слабые же участники передачи будут постепенно выбывать из игры, ведь победить должен сильнейший. И через 10 недель зрителей ждет великолепное танцевальное представление, где будет разыгрываться звание лучшего танцора мира, а также солидный денежный приз.

Качество: WEBRip
Формат: AVI
Видео: Xvid, 624x352, ~840 Kbps, 29.97fps / 23.976fps, 0.16 bit/pixel
Аудио: AC3, 48000Hz, 2ch, 192kbps

l l
<div class="sp-wrap">
<div class="sp-head folded">23.976fps</div>
<div class="sp-body">Format : AVI
Format/Info : Audio Video Interleave
File size : 319 MiB
Duration : 42mn 51s
Overall bit rate : 1 042 Kbps
Writing application : VirtualDubMod 1.5.10.3 (build 2550/release)
Writing library : VirtualDubMod build 2550/release

Video
ID : 0
Format : MPEG-4 Visual
Format profile : Advanced Simple@L5
Format settings, BVOP : 1
Format settings, QPel : No
Format settings, GMC : No warppoints
Format settings, Matrix : Default (H.263)
Codec ID : XVID
Codec ID/Hint : XviD
Duration : 42mn 51s
Bit rate : 840 Kbps
Width : 624 pixels
Height : 352 pixels
Display aspect ratio : 16:9
Frame rate : 23.976 fps
Color space : YUV
Chroma subsampling : 4:2:0
Bit depth : 8 bits
Scan type : Progressive
Compression mode : Lossy
Bits/(Pixel*Frame) : 0.160
Stream size : 258 MiB (81%)
Writing library : XviD 1.2.1 (UTC 2008-12-04)

Audio
ID : 1
Format : AC-3
Format/Info : Audio Coding 3
Mode extension : CM (complete main)
Format settings, Endianness : Big
Codec ID : 2000
Duration : 42mn 51s
Bit rate mode : Constant
Bit rate : 192 Kbps
Channel(s) : 2 channels
Channel positions : Front: L R
Sampling rate : 48.0 KHz
Bit depth : 16 bits
Compression mode : Lossy
Stream size : 58.9 MiB (18%)
Alignment : Split accross interleaves
Interleave, duration : 42 ms (1.00 video frame)
Interleave, preload duration : 500 ms
Format : AVI
Format/Info : Audio Video Interleave
File size : 399 MiB
Duration : 44mn 20s
Overall bit rate : 1 259 Kbps
Writing application : VirtualDubMod 1.5.10.3 (build 2550/release)
Writing library : VirtualDubMod build 2550/release

Video
ID : 0
Format : MPEG-4 Visual
Format profile : Advanced Simple@L5
Format settings, BVOP : 1
Format settings, QPel : No
Format settings, GMC : No warppoints
Format settings, Matrix : Default (H.263)
Codec ID : XVID
Codec ID/Hint : XviD
Duration : 44mn 20s
Bit rate : 1 055 Kbps
Width : 624 pixels
Height : 352 pixels
Display aspect ratio : 16:9
Frame rate : 29.970 fps
Color space : YUV
Chroma subsampling : 4:2:0
Bit depth : 8 bits
Scan type : Progressive
Compression mode : Lossy
Bits/(Pixel*Frame) : 0.160
Stream size : 335 MiB (84%)
Writing library : XviD 1.2.1 (UTC 2008-12-04)

Audio
ID : 1
Format : AC-3
Format/Info : Audio Coding 3
Mode extension : CM (complete main)
Format settings, Endianness : Big
Codec ID : 2000
Duration : 44mn 20s
Bit rate mode : Constant
Bit rate : 192 Kbps
Channel(s) : 2 channels
Channel positions : Front: L R
Sampling rate : 48.0 KHz
Bit depth : 16 bits
Compression mode : Lossy
Stream size : 60.9 MiB (15%)
Alignment : Split accross interleaves
Interleave, duration : 33 ms (1.00 video frame)
Interleave, preload duration : 500 ms
</div>
</div>
01. The Qualifiers 1
02. The Qualifiers 2
03. The Qualifiers 3
04. The Duels 1
05. The Duels 2
06. The Duels 3
07. The Cut 1
08. The Cut 2
09. Divisional Final
10. World Final


Трекер:  [ 12-Сен-2017 18:12 ]

  

Скачать .torrent

Размер .torrent файла 17 KB


Размер: 3.33 GB
Хэш (hash) релиза: 2706730e6ebc74d7f8a55ec970000b0e3f8469a6
Подписка на обновления:

Еще никто не оставлял запись к записи скачать торрент Мир танцев World of Dance . Будь первым!

!Обратная связь