Скачать через торрент музыку John Foxx and Louis Gordon - The Pleasures Of Electricity - 2001, FLAC бесплатно без регистрации torrent

Если у вас наблюдаются проблемы со скриншотами, переходом по ссылками, скачиванием торрентов - проблемы в блокировщике рекламы AdBlock. #хорошегоДня!


Статистика раздачи
Размер:  409 MB   |    Зарегистрирован:  8 дней   |    .torrent скачан:  4 раза   |   
Раздают:  3  
   
Загрузка...
 
Автор Сообщение

Galfimbul

avatar Galfimbul


John Foxx and Louis Gordon - The Pleasures Of Electricity

Жанр: Electronic \ Synth-pop
Дата релиза: 15 Sep 2001
Производитель: Metamatic \ UK
Аудио кодек: FLAC
Тип рипа: tracks+.cue
Битрейт аудио: lossless
Продолжительность: 01:06:00

Discogs.com

Трэклист:

01 A Funny Thing (4:18)
02 Night Life (5:54)
03 Camera (7:47)
04 Invisible Women (5:55)
05 Cities Of Light 5 (5:26)
06 Uptown/Downtown (6:34)
07 When It Rains (4:24)
08 Automobile (5:56)
09 The Falling Room (4:52)
10 Travel (6:57)
11 Quiet City (5:04)

Состав:
John Foxx - Synthesizer, Vocals
Louis Gordon - Synthesizer
Exact Audio Copy V0.99 prebeta 5 from 4. May 2009

EAC extraction logfile from 1. November 2009, 12:54

John Foxx and Louis Gordon / The pleasures of electricity

Used drive : _NEC DVD_RW ND-4570A Adapter: 0 ID: 0

Read mode : SecureUtilize accurate stream : YesDefeat audio cache : YesMake use of C2 pointers : No

Read offset correction : 48Overread into Lead-In and Lead-Out : NoFill up missing offset samples with silence : YesDelete leading and trailing silent blocks : NoNull samples used in CRC calculations : YesUsed interface : Native Win32 interface for Win NT & 2000Gap handling : Appended to previous track

Used output format : User Defined EncoderSelected bitrate : 896 kBit/sQuality : HighAdd ID3 tag : NoCommand line compressor : C:\Programmi\FLAC\flac.exeAdditional command line options : -8 -V -T "ARTIST=%a" -T "TITLE=%t" -T "ALBUM=%g" -T "DATE=%y" -T "TRACKNUMBER=%n" -T "TOTALTRACKS=%x" -T "GENRE=%m" -T "ALBUMARTIST=%v" -T "ALBUM ARTIST=%v" -T "COMMENT=EAC V0.99 prebeta 5, Secure Mode, Test & Copy, Accurat

TOC of the extracted CD

Track | Start | Length | Start sector | End sector --------------------------------------------------------- 1 | 0:00.00 | 4:16.39 | 0 | 19238 2 | 4:16.39 | 5:52.00 | 19239 | 45638 3 | 10:08.39 | 7:46.06 | 45639 | 80594 4 | 17:54.45 | 5:54.49 | 80595 | 107193 5 | 23:49.19 | 5:24.30 | 107194 | 131523 6 | 29:13.49 | 6:29.44 | 131524 | 160742 7 | 35:43.18 | 4:20.57 | 160743 | 180299 8 | 40:04.00 | 5:53.32 | 180300 | 206806 9 | 45:57.32 | 4:49.16 | 206807 | 228497 10 | 50:46.48 | 6:54.43 | 228498 | 259590 11 | 57:41.16 | 5:06.02 | 259591 | 282542

Track 1

Filename d:\Documenti\UPLOAD\John Foxx and Louis Gordon - The Pleasures Of Electricity (2001) [FLAC]\01 - A funny thing.wav

Pre-gap length 0:00:02.00

Peak level 100.0 % Track quality 100.0 % Test CRC 3497CA28 Copy CRC 3497CA28 Accurately ripped (confidence 4) [C7C62A6F] Copy OK

Track 2

Filename d:\Documenti\UPLOAD\John Foxx and Louis Gordon - The Pleasures Of Electricity (2001) [FLAC]\02 - Nightlife.wav

Pre-gap length 0:00:01.42

Peak level 100.0 % Track quality 99.9 % Test CRC 8CECF77E Copy CRC 8CECF77E Accurately ripped (confidence 4) [868B629D] Copy OK

Track 3

Filename d:\Documenti\UPLOAD\John Foxx and Louis Gordon - The Pleasures Of Electricity (2001) [FLAC]\03 - Camera.wav

Pre-gap length 0:00:03.02

Peak level 100.0 % Track quality 100.0 % Test CRC 0A87275D Copy CRC 0A87275D Accurately ripped (confidence 4) [3835D978] Copy OK

Track 4

Filename d:\Documenti\UPLOAD\John Foxx and Louis Gordon - The Pleasures Of Electricity (2001) [FLAC]\04 - Invisible women.wav

Pre-gap length 0:00:02.33

Peak level 99.9 % Track quality 99.9 % Test CRC 6CFA6F05 Copy CRC 6CFA6F05 Accurately ripped (confidence 4) [AE379CBA] Copy OK

Track 5

Filename d:\Documenti\UPLOAD\John Foxx and Louis Gordon - The Pleasures Of Electricity (2001) [FLAC]\05 - Cities of light.wav

Pre-gap length 0:00:03.34

Peak level 100.0 % Track quality 99.9 % Test CRC D1C4DCF5 Copy CRC D1C4DCF5 Accurately ripped (confidence 4) [FF8B33E3] Copy OK

Track 6

Filename d:\Documenti\UPLOAD\John Foxx and Louis Gordon - The Pleasures Of Electricity (2001) [FLAC]\06 - Uptown,Downtown.wav

Pre-gap length 0:00:02.48

Peak level 100.0 % Track quality 100.0 % Test CRC 9079A231 Copy CRC 9079A231 Accurately ripped (confidence 4) [32850E3A] Copy OK

Track 7

Filename d:\Documenti\UPLOAD\John Foxx and Louis Gordon - The Pleasures Of Electricity (2001) [FLAC]\07 - When it rains.wav

Pre-gap length 0:00:00.02

Peak level 100.0 % Track quality 100.0 % Test CRC 11859ADD Copy CRC 11859ADD Accurately ripped (confidence 4) [6BC858F3] Copy OK

Track 8

Filename d:\Documenti\UPLOAD\John Foxx and Louis Gordon - The Pleasures Of Electricity (2001) [FLAC]\08 - Automobile.wav

Pre-gap length 0:00:00.18

Peak level 100.0 % Track quality 100.0 % Test CRC CC5254EB Copy CRC CC5254EB Accurately ripped (confidence 4) [330326AB] Copy OK

Track 9

Filename d:\Documenti\UPLOAD\John Foxx and Louis Gordon - The Pleasures Of Electricity (2001) [FLAC]\09 - The falling room.wav

Pre-gap length 0:00:01.93

Peak level 100.0 % Track quality 99.9 % Test CRC E774B910 Copy CRC E774B910 Accurately ripped (confidence 4) [970987B0] Copy OK

Track 10

Filename d:\Documenti\UPLOAD\John Foxx and Louis Gordon - The Pleasures Of Electricity (2001) [FLAC]\10 - Travel.wav

Pre-gap length 0:00:02.25

Peak level 100.0 % Track quality 100.0 % Test CRC 18E6592A Copy CRC 18E6592A Accurately ripped (confidence 4) [9F1357E1] Copy OK

Track 11

Filename d:\Documenti\UPLOAD\John Foxx and Louis Gordon - The Pleasures Of Electricity (2001) [FLAC]\11 - Quiet city.wav

Pre-gap length 0:00:01.17

Peak level 100.0 % Track quality 100.0 % Test CRC C6908678 Copy CRC C6908678 Accurately ripped (confidence 2) [1070B0C8] Copy OK

All tracks accurately ripped

No errors occurred

End of status report
REM GENRE ElectronicREM DATE 2001REM DISCID 8F0EB70BREM COMMENT "ExactAudioCopy v0.99pb5"PERFORMER "John Foxx and Louis Gordon"TITLE "The pleasures of electricity"FILE "01 - A funny thing.wav" WAVE TRACK 01 AUDIO TITLE "A funny thing" PERFORMER "John Foxx and Louis Gordon" INDEX 01 00:00:00 TRACK 02 AUDIO TITLE "Nightlife" PERFORMER "John Foxx and Louis Gordon" INDEX 00 04:15:07FILE "02 - Nightlife.wav" WAVE INDEX 01 00:00:00 TRACK 03 AUDIO TITLE "Camera" PERFORMER "John Foxx and Louis Gordon" INDEX 00 05:48:73FILE "03 - Camera.wav" WAVE INDEX 01 00:00:00 TRACK 04 AUDIO TITLE "Invisible women" PERFORMER "John Foxx and Louis Gordon" INDEX 00 07:43:56FILE "04 - Invisible women.wav" WAVE INDEX 01 00:00:00 TRACK 05 AUDIO TITLE "Cities of light" PERFORMER "John Foxx and Louis Gordon" INDEX 00 05:51:23FILE "05 - Cities of light.wav" WAVE INDEX 01 00:00:00 TRACK 06 AUDIO TITLE "Uptown/Downtown" PERFORMER "John Foxx and Louis Gordon" INDEX 00 05:21:69FILE "06 - Uptown,Downtown.wav" WAVE INDEX 01 00:00:00 TRACK 07 AUDIO TITLE "When it rains" PERFORMER "John Foxx and Louis Gordon" INDEX 00 06:29:42FILE "07 - When it rains.wav" WAVE INDEX 01 00:00:00 TRACK 08 AUDIO TITLE "Automobile" PERFORMER "John Foxx and Louis Gordon" INDEX 00 04:20:43FILE "08 - Automobile.wav" WAVE INDEX 01 00:00:00 TRACK 09 AUDIO TITLE "The falling room" PERFORMER "John Foxx and Louis Gordon" INDEX 00 05:51:37FILE "09 - The falling room.wav" WAVE INDEX 01 00:00:00 TRACK 10 AUDIO TITLE "Travel" PERFORMER "John Foxx and Louis Gordon" INDEX 00 04:46:72FILE "10 - Travel.wav" WAVE INDEX 01 00:00:00 TRACK 11 AUDIO TITLE "Quiet city" PERFORMER "John Foxx and Louis Gordon" INDEX 00 06:53:30FILE "11 - Quiet city.wav" WAVE INDEX 01 00:00:00


Трекер:  [ 12-Сен-2017 16:30 ]

  

Скачать .torrent

Размер .torrent файла 17 KB


Размер: 409 MB
Хэш (hash) релиза: 68213c97dcdf66ca44aae3e643ed4145463dc8d8

Еще никто не оставлял запись к записи скачать торрент John Foxx and Louis Gordon - The Pleasures Of Electricity - 2001, FLAC . Будь первым!

!Обратная связь