Скачать через торрент музыку Dub Tractor - Discrete Recordings бесплатно без регистрации torrent

Если у вас наблюдаются проблемы со скриншотами, переходом по ссылками, скачиванием торрентов - проблемы в блокировщике рекламы AdBlock. #хорошегоДня!


Статистика раздачи
Размер:  311 MB   |    Зарегистрирован:  8 дней   |    .torrent скачан:  8 раз   |   
Раздают:  1  
   
Загрузка...
 
Автор Сообщение

Galfimbul

avatar Galfimbul


Dub Tractor
Discrete Recordings
(FLEX Records - 1994)

Жанр: Ambient, Downtempo, Experimental
Год выпуска диска: 1994
Производитель диска: Denmark
Аудио кодек: FLAC
Тип рипа: tracks+.cue
Битрейт аудио: lossless
Продолжительность: 01:10:55

Трэклист:
01. P. Phase S.T.
02. Resonance
03. I Will Return
04. 8-Bit Moon
05. M.U.R.M.
06. Aldrin Rev
07. S.O.M.
08. Part Orange
09. 10 10
10. Goodnight
Exact Audio Copy V0.99 prebeta 4 from 23. January 2008

EAC extraction logfile from 8. January 2010, 11:43

Dub Tractor / Discrete Recordings

Used drive : HL-DT-STDVDRAM GSA-4081B Adapter: 1 ID: 0

Read mode : SecureUtilize accurate stream : YesDefeat audio cache : YesMake use of C2 pointers : No

Read offset correction : 667Overread into Lead-In and Lead-Out : NoFill up missing offset samples with silence : YesDelete leading and trailing silent blocks : NoNull samples used in CRC calculations : YesUsed interface : Native Win32 interface for Win NT & 2000Gap handling : Appended to previous track

Used output format : User Defined EncoderSelected bitrate : 256 kBit/sQuality : HighAdd ID3 tag : NoCommand line compressor : C:\Program Files\Exact Audio Copy\Flac\flac.exeAdditional command line options : -V -8 -T "artist=%a" -T "title=%t" -T "album=%g" -T "date=%y" -T "tracknumber=%n" -T "genre=%m" %s

TOC of the extracted CD

Track | Start | Length | Start sector | End sector --------------------------------------------------------- 1 | 0:00.00 | 6:21.15 | 0 | 28589 2 | 6:21.15 | 9:07.37 | 28590 | 69651 3 | 15:28.52 | 6:07.53 | 69652 | 97229 4 | 21:36.30 | 5:44.40 | 97230 | 123069 5 | 27:20.70 | 7:51.22 | 123070 | 158416 6 | 35:12.17 | 7:21.40 | 158417 | 191531 7 | 42:33.57 | 6:35.63 | 191532 | 221219 8 | 49:09.45 | 5:05.02 | 221220 | 244096 9 | 54:14.47 | 10:51.13 | 244097 | 292934 10 | 65:05.60 | 5:47.45 | 292935 | 319004

Track 1

Filename E:\[ OiNKNeVerDie ]\Dub Tractor - Discrete Recordings (Flex - 1994)\01 - Dub Tractor - P. Phase S.T..wav

Pre-gap length 0:00:02.00

Peak level 96.6 % Track quality 99.9 % Test CRC 212C7D24 Copy CRC 212C7D24 Accurately ripped (confidence 1) [F525BFB5] Copy OK

Track 2

Filename E:\[ OiNKNeVerDie ]\Dub Tractor - Discrete Recordings (Flex - 1994)\02 - Dub Tractor - Resonnance.wav

Peak level 100.0 % Track quality 100.0 % Test CRC 97AE9949 Copy CRC 97AE9949 Accurately ripped (confidence 1) [6D0057EF] Copy OK

Track 3

Filename E:\[ OiNKNeVerDie ]\Dub Tractor - Discrete Recordings (Flex - 1994)\03 - Dub Tractor - I Will Return.wav

Peak level 95.4 % Track quality 100.0 % Test CRC A9BB2F3B Copy CRC A9BB2F3B Accurately ripped (confidence 1) [ED9D066F] Copy OK

Track 4

Filename E:\[ OiNKNeVerDie ]\Dub Tractor - Discrete Recordings (Flex - 1994)\04 - Dub Tractor - 8 Bit Moon.wav

Pre-gap length 0:00:02.13

Peak level 100.0 % Track quality 100.0 % Test CRC 1AB520A7 Copy CRC 1AB520A7 Accurately ripped (confidence 1) [74ECE4A4] Copy OK

Track 5

Filename E:\[ OiNKNeVerDie ]\Dub Tractor - Discrete Recordings (Flex - 1994)\05 - Dub Tractor - M.U.R.M..wav

Pre-gap length 0:00:04.00

Peak level 61.1 % Track quality 100.0 % Test CRC DCFC68C6 Copy CRC DCFC68C6 Accurately ripped (confidence 1) [D18A7B9A] Copy OK

Track 6

Filename E:\[ OiNKNeVerDie ]\Dub Tractor - Discrete Recordings (Flex - 1994)\06 - Dub Tractor - Aldrin Rev..wav

Peak level 99.1 % Track quality 100.0 % Test CRC 4F13ADDB Copy CRC 4F13ADDB Accurately ripped (confidence 1) [756914E0] Copy OK

Track 7

Filename E:\[ OiNKNeVerDie ]\Dub Tractor - Discrete Recordings (Flex - 1994)\07 - Dub Tractor - S.O.M..wav

Peak level 100.0 % Track quality 99.9 % Test CRC 428E971B Copy CRC 428E971B Accurately ripped (confidence 1) [D6C6E34A] Copy OK

Track 8

Filename E:\[ OiNKNeVerDie ]\Dub Tractor - Discrete Recordings (Flex - 1994)\08 - Dub Tractor - Part Orange.wav

Pre-gap length 0:00:02.17

Peak level 100.0 % Track quality 100.0 % Test CRC D4A13F3F Copy CRC D4A13F3F Accurately ripped (confidence 1) [450C4027] Copy OK

Track 9

Filename E:\[ OiNKNeVerDie ]\Dub Tractor - Discrete Recordings (Flex - 1994)\09 - Dub Tractor - 10 10.wav

Pre-gap length 0:00:01.06

Peak level 72.0 % Track quality 99.9 % Test CRC F383AB90 Copy CRC F383AB90 Accurately ripped (confidence 1) [C6DEE497] Copy OK

Track 10

Filename E:\[ OiNKNeVerDie ]\Dub Tractor - Discrete Recordings (Flex - 1994)\10 - Dub Tractor - Goodnight.wav

Peak level 93.0 % Track quality 100.0 % Test CRC 82A1A934 Copy CRC 82A1A934 Accurately ripped (confidence 1) [5A11197C] Copy OK

All tracks accurately ripped

No errors occurred

End of status report
REM GENRE ElectronicREM DATE 1994REM DISCID 8A109D0AREM COMMENT "ExactAudioCopy v0.99pb4"PERFORMER "Dub Tractor"TITLE "Discrete Recordings"FILE "01 - Dub Tractor - P. Phase S.T..wav" WAVE TRACK 01 AUDIO TITLE "P. Phase S.T." PERFORMER "Dub Tractor" INDEX 01 00:00:00FILE "02 - Dub Tractor - Resonnance.wav" WAVE TRACK 02 AUDIO TITLE "Resonnance" PERFORMER "Dub Tractor" INDEX 01 00:00:00FILE "03 - Dub Tractor - I Will Return.wav" WAVE TRACK 03 AUDIO TITLE "I Will Return" PERFORMER "Dub Tractor" INDEX 01 00:00:00 TRACK 04 AUDIO TITLE "8 Bit Moon" PERFORMER "Dub Tractor" INDEX 00 06:05:43FILE "04 - Dub Tractor - 8 Bit Moon.wav" WAVE INDEX 01 00:00:00 TRACK 05 AUDIO TITLE "M.U.R.M." PERFORMER "Dub Tractor" INDEX 00 05:40:40FILE "05 - Dub Tractor - M.U.R.M..wav" WAVE INDEX 01 00:00:00FILE "06 - Dub Tractor - Aldrin Rev..wav" WAVE TRACK 06 AUDIO TITLE "Aldrin Rev." PERFORMER "Dub Tractor" INDEX 01 00:00:00FILE "07 - Dub Tractor - S.O.M..wav" WAVE TRACK 07 AUDIO TITLE "S.O.M." PERFORMER "Dub Tractor" INDEX 01 00:00:00 TRACK 08 AUDIO TITLE "Part Orange" PERFORMER "Dub Tractor" INDEX 00 06:33:50FILE "08 - Dub Tractor - Part Orange.wav" WAVE INDEX 01 00:00:00 TRACK 09 AUDIO TITLE "10 10" PERFORMER "Dub Tractor" INDEX 00 05:03:72FILE "09 - Dub Tractor - 10 10.wav" WAVE INDEX 01 00:00:00FILE "10 - Dub Tractor - Goodnight.wav" WAVE TRACK 10 AUDIO TITLE "Goodnight" PERFORMER "Dub Tractor" INDEX 01 00:00:00


Трекер:  [ 12-Сен-2017 16:01 ]

  

Скачать .torrent

Размер .torrent файла 13 KB


Размер: 311 MB
Хэш (hash) релиза: 07045d3d14553dcfb31dd2b5d7e0a8aba115f260

Еще никто не оставлял запись к записи скачать торрент Dub Tractor - Discrete Recordings . Будь первым!

!Обратная связь