Скачать через торрент Орвилл The Orville Фильм бесплатно в хорошем качестве torrent

Скачивайте на UnionPeer.org фильмы через торрент без регистрации. Новинки кино в хорошем качестве через торрент. На UnionPeer.org можно скачать через торрент фильмы 2014 и 2015 годов. Самые новые фильмы.

Скачать торрент Орвилл The Orville бесплатно через .torrent фильм мультфильм сериал

Если у вас наблюдаются проблемы со скриншотами, переходом по ссылками, скачиванием торрентов - проблемы в блокировщике рекламы AdBlock. #хорошегоДня!


Статистика раздачи
Размер:  1.48 GB   |    Зарегистрирован:  2 месяца 8 дней   |    .torrent скачан:  49 раз   |   
Раздают:  1  
   
Загрузка...
 
Автор Сообщение

Galfimbul

avatar Galfimbul


Орвилл / The Orville

Год выпуска: 2017
Страна: США
Жанр: Комедия, фантастика, драма
Продолжительность: ~00:46:00

Перевод: Любительский (двухголосый закадровый) D1

Режиссёр: Брэннон Брага, Джон Кассар, Джеймс Л. Конуэй
В ролях: Сет МакФарлейн, Пенни Джонсон, Скотт Граймз, Питер Макон, Эдрианн Палики, Холстон Сейдж, Ларри Джо Кэмпбелл, Норм МакДональд

Описание: В сериале показано недалекое будущее в 25 веке, где планета Земля частью меж Планетарного Союза, который содержит флот из 3000 кораблей. Чтобы укомплектовать огромный флот понадобились все возможные командиры, и в их число вошел главный герой Эд Мерсер. Он с детства мечтал о такой возможности, и это его последний шанс доказать начальству, что он не безнадежный. После развода герой планирует начать новую жизнь и отправится на изучения космоса. Его первым помощником на корабле Орвилл, назначают не Спока и даже не вулканца, а его бывшую жену Келли. Такой поворот событий дает понять, что путешествие будет увлекательным с множеством комедийных ситуаций.

Сэмпл: http://sendfile.su/1361310

Качество: WEB-DL 720p
Контейнер: MKV
Видео: AVC, 1280x718 (16:9), 3952 Kbps, 23,976 fps, 0.179 bit/pixel
Аудио: AC-3, 48,0 kHz, 2 ch, 192 kbps [Rus, D1]
Аудио 2: AC-3, 48,0 kHz, 6 ch, 384 kbps [Eng, original]
Субтитры: Отсутствуют
Реклама: Отсутствует
Формат : Matroska
Версия формата : Version 4 / Version 2
Размер файла : 1,48 Гбайт
Продолжительность : 46 м.
Общий поток : 4620 Кбит/сек
Название фильма : The.Orville.S01E01.720p.WEB-DL.DD5.1.H264-RARBG
Дата кодирования : UTC 2017-09-12 10:35:00
Программа кодирования : mkvmerge v9.7.1 ('Pandemonium') 64bit
Библиотека кодирования : libebml v1.3.4 + libmatroska v1.4.5
DURATION : 00:45:59.872000000
NUMBER_OF_FRAMES : 86246
NUMBER_OF_BYTES : 66236928
_STATISTICS_WRITING_APP : mkvmerge v9.7.1 ('Pandemonium') 64bit
_STATISTICS_WRITING_DATE_UTC : 2017-09-12 10:35:00
_STATISTICS_TAGS : BPS DURATION NUMBER_OF_FRAMES NUMBER_OF_BYTES
Attachment : Yes / Yes / Yes / Yes

Видео
Идентификатор : 1
Формат : AVC
Формат/Информация : Advanced Video Codec
Профиль формата : High@L3.1
Параметр CABAC формата : Нет
Параметр ReFrames формата : 2 кадра
Идентификатор кодека : V_MPEG4/ISO/AVC
Продолжительность : 46 м.
Битрейт : 3952 Кбит/сек
Ширина : 1280 пикселей
Высота : 718 пикселей
Соотношение сторон : 16:9
Режим частоты кадров : Постоянный
Частота кадров : 23,976 кадра/сек
Цветовое пространство : YUV
Субдискретизация насыщенности : 4:2:0
Битовая глубина : 8 бит
Тип развёртки : Прогрессивная
Бит/(Пиксели*Кадры) : 0.179
Размер потока : 1,27 Гбайт (86%)
Заголовок : The.Orville.S01E01.720p.WEB-DL.DD5.1.H264-RARBG
Язык : English
Default : Да
Forced : Нет
Основные цвета : BT.709
Характеристики трансфера : BT.709
Коэффициенты матрицы : BT.709

Аудио #1
Идентификатор : 2
Формат : AC-3
Формат/Информация : Audio Coding 3
Расширение режима : CM (complete main)
Параметр Endianness формата : Big
Идентификатор кодека : A_AC3
Продолжительность : 46 м.
Вид битрейта : Постоянный
Битрейт : 192 Кбит/сек
Каналы : 2 канала
Расположение каналов : Front: L R
Частота : 48,0 КГц
Битовая глубина : 16 бит
Метод сжатия : С потерями
Размер потока : 63,2 Мбайт (4%)
Default : Да
Forced : Нет

Аудио #2
Идентификатор : 3
Формат : AC-3
Формат/Информация : Audio Coding 3
Расширение режима : CM (complete main)
Параметр Endianness формата : Big
Идентификатор кодека : A_AC3
Продолжительность : 46 м.
Вид битрейта : Постоянный
Битрейт : 384 Кбит/сек
Каналы : 6 каналов
Расположение каналов : Front: L C R, Side: L R, LFE
Частота : 48,0 КГц
Битовая глубина : 16 бит
Метод сжатия : С потерями
Размер потока : 126 Мбайт (8%)
Заголовок : The.Orville.S01E01.720p.WEB-DL.DD5.1.H264-RARBG
Язык : English
Default : Нет
Forced : Нет
Внимание! Раздача ведётся путём добавления новых серий; при каждом добавлении создаётся новый торрент. Чтобы начать докачку новой серии, пользователям необходимо сделать следующее:
(1) остановить скачивание,
(2) удалить старый торрент у себя из клиента (старые серии удалять не надо),
(3) скачать новый торрент и запустить его у себя в клиенте вместо старого, при этом указать клиенту путь в старую папку куда и должно происходить скачивание новых серий.

Ваш клиент при этом должен произвести хеширование (проверку) старой папки (если не производит сам - помогите ему сделать это), и будет докачивать только те серии которых у вас ещё нет. Старые серии при этом не удаляются, а продолжают раздаваться!

Eсли вы уже удалили старые серии, то предотвратить повторную закачку старых серий можно, отжав галочку в соответствующих местах при запуске нового торрента. По возможности, желательно не удалять старые серии как можно дольше чтобы релизёр не столько продолжал раздавать старые серии, а смог сконцентрироваться на новых.


Трекер:  [ 12-Сен-2017 14:24 ]

  

Скачать .torrent

Размер .torrent файла 15 KB


Размер: 1.48 GB
Хэш (hash) релиза: bbff54e0346c43250496d549f96873ca0ed1e516
Подписка на обновления:

Торренты, похожие на Орвилл The Orville скачать торрент

Форум Название Автор Размер S L Добавлен
Зарубежные сериалы ·· Орвилл / The Orville / Сезон: 1 / Серии: 1 из 13 (Джон Фавро, Джон Кассар, Джеймс Л. Конуэй) [2017, США, Фантастика, драма, комедия, приключения, WEB-DL 1080p] MVO (Alternative Production) + Original Galfimbul 20414239711.9 GB 0 0 1505764495

22:54

18-Сен-17

Зарубежные сериалы ·· Орвилл / The Orville / Сезон: 1 / Серии: 1 из 13 (Брэннон Брага, Джон Кассар, Джеймс Л. Конуэй) [2017, США, Фантастика, драма, комедия, WEB-DL 1080p] MVO (LostFilm) + Original Galfimbul 42689406973.98 GB 0 0 1505388282

14:24

14-Сен-17

Зарубежные сериалы ·· Орвилл / The Orville / Сезон: 1 / Серии: 1 из 13 (Брэннон Брага, Джон Кассар, Джеймс Л. Конуэй) [2017, США, Фантастика, драма, комедия, WEB-DLRip] MVO (Jaskier) + Original Galfimbul 627806208599 MB 0 0 1505303688

14:54

13-Сен-17

Зарубежные сериалы ·· Орвилл / The Orville / Сезон: 1 / Серии: 1 из 13 (Брэннон Брага, Джон Кассар, Джеймс Л. Конуэй) [2017, США, Фантастика, драма, комедия, WEB-DL 720p] MVO (Jaskier) + Original Galfimbul 16601836931.55 GB 0 0 1505303682

14:54

13-Сен-17

Зарубежные сериалы ·· Орвилл / The Orville / Сезон: 1 / Серии: 1 из 13 (Брэннон Брага, Джон Кассар, Джеймс Л. Конуэй) [2017, США, Фантастика, драма, комедия, WEB-DL 1080p] MVO (Jaskier) + Original Galfimbul 20418828571.9 GB 0 0 1505303673

14:54

13-Сен-17

Зарубежные сериалы ·· Орвилл / The Orville / Сезон: 1 / Серии: 1 из 13 (Брэннон Брага, Джон Кассар, Джеймс Л. Конуэй) [2017, США, Фантастика, драма, комедия, WEB-DLRip] MVO (Profix Media) + Original Galfimbul 608622592580 MB 0 0 1505249758

23:55

12-Сен-17

Зарубежные сериалы ·· Орвилл / The Orville / Сезон: 1 / Серии: 1-10 из 13 (Брэннон Брага, Джон Кассар, Джеймс Л. Конуэй) [2017, США, Фантастика, драма, комедия, WEB-DLRip] MVO (Profix Media) + Original Galfimbul 58248396805.42 GB 2 0 1510064431

17:20

7-Ноя-17

Зарубежные сериалы ·· Орвилл / The Orville / Сезон: 1 / Серии: 1-5 из 13 (Брэннон Брага, Джон Кассар, Джеймс Л. Конуэй) [2017, США, Фантастика, комедия, WEBRip] MVO (Good People) + Original Galfimbul 28852695042.69 GB 0 0 1507497827

00:23

9-Окт-17

Зарубежные сериалы ·· Орвилл / The Orville / Сезон: 1 / Серии: 1-4 из 13 (Брэннон Брага, Джон Кассар, Джеймс Л. Конуэй) [2017, США, Фантастика, комедия, WEB-DL 720p] MVO (Good People) + Original Galfimbul 76313981117.11 GB 0 0 1507258487

05:54

6-Окт-17

Зарубежные сериалы ·· Орвилл / The Orville / Сезон: 2 / Серии: 1-6 из 13 (Брэннон Брага, Джон Кассар) [2017, США, фантастика, драма, комедия, AMZN-WEBRip 720p] MVO (NewStudio, LostFilm, Jaskier, AlexFilm) + DVO (Кубик в Кубе) + Original + Subs (Eng) Galfimbul 1481742130813.8 GB 0 0 1508507678

16:54

20-Окт-17

Еще никто не оставлял запись к записи скачать торрент Орвилл The Orville . Будь первым!

!Обратная связь