Скачать через торрент [ATV3] Синяя бездна 47 Meters Down бесплатно русская версия torrent активатор

Если у вас наблюдаются проблемы со скриншотами, переходом по ссылками, скачиванием торрентов - проблемы в блокировщике рекламы AdBlock. #хорошегоДня!


Статистика раздачи
Размер:  4.11 GB   |    Зарегистрирован:  8 дней   |    .torrent скачан:  4 раза   |   
Раздают:  1  
   
Загрузка...
 
Автор Сообщение

Galfimbul

avatar Galfimbul


Синяя бездна / 47 Meters Down
«В 47 метрах от спасения. Всего час кислорода. Среди хищников»

5.666 / 10 5.90 / 10
Год выпуска: 2017
Страна: Великобритания, США, Доминикана
Жанр: Ужасы, триллер, драма, приключения
Продолжительность: 01:25:32

Перевод 1: Дублированный (Русский) (iTunes)
Перевод 2: Многоголосый закадровый (Украинский)(iTunes)
Оригинальная аудиодорожка: Есть
Cубтитры: Английские
Режиссёр: Йоханнес Робертс
Сценарий: Йоханнес Робертс, Эрнест Риера
Продюсер: Джеймс Харрис, Марк Лэйн, Иэн Абрахамс
Оператор: Mark Silk
Композитор: Томэндэнди
Художник: Дэвид Брайан, Thomas Bryan, Natalia Veloz Chapuseaux
Монтаж: Мартин Бринклер
В ролях: Мэнди Мур, Клер Холт, Крис Дж. Джонсон, Яни Гельман, Сантьяго Сегура, Мэттью Модайн, Майра Хуарес, Axel Mansilla

Бюджет: $5 500 000
Сборы в США: $44 167 541
Сборы в России: $754 897

Мировая премьера: 25 мая 2017
Премьера (РФ): 29 июня 2017

Описание: Отдыхая на солнечных пляжах Мексики, Лиза и ее сестра Кейт решаются на погружение в клетке к большим белым акулам. Но зрелищный аттракцион оборачивается кошмаром, когда клетка с двумя девушками срывается на океанское дно. Помощи ждать неоткуда, а кислорода остается лишь на час. Единственный выход из смертельной ловушки — плыть вверх через толщу воды, которая кишит самыми свирепыми хищниками океана.Качество исходника: WEB-DL 1080p (BlueBird)
Качество: WEB-DL
Тип: HD (1080p)
Контейнер: M4V
Видео: H.264, 1920x1080, 16:9, 5 255 Kbps, 25.000 fps

Аудио 1: Русский/Дублированный (iTunes), AAC / 2.0 / 160 Kbps / 48.0 KHz
Аудио 2: Английский/Оригинальная дорожка , AAC / 2.0 / 160 Kbps / 48.0 KHz
Аудио 3: Украинский/Многоголосый закадровый (iTunes), AAC / 2.0 / 160 Kbps / 48.0 KHz
Аудио 4: Русский/Дублированный (iTunes), AC-3 / 5.1 / 384 Kbps / 48.0 KHz
Аудио 5: Английский/Оригинальная дорожка, AC-3 / 5.1 / 384 Kbps / 48.0 KHz
Аудио 6: Украинский/Многоголосый закадровый (iTunes) , AC-3 / 5.1 / 384 Kbps / 48.0 KHz

Субтитры : Английские полные
Sort Name: 47 Meters Down
XID: Apple:vendor_id:2017-777887
contentID: 1258239441
Screenwriters: Йоханнес Робертс, Эрнест Риера
Producers: Джеймс Харрис, Марк Лэйн, Иэн Абрахамс
Director: Йоханнес Робертс
Cast: Мэнди Мур, Клер Холт, Крис Дж. Джонсон, Яни Гельман, Сантьяго Сегура, Мэттью Модайн, Майра Хуарес, Axel Mansilla, Татьяна Шитова, Наталья Фищук, Илья Бледный, Диомид Виноградов, Валерий Сторожик
Studio: Entertainment Studios
Rating: 4
Long Description: Отдыхая на солнечных пляжах Мексики, Лиза и ее сестра Кейт решаются на погружение в клетке к большим белым акулам. Но зрелищный аттракцион оборачивается кошмаром, когда клетка с двумя девушками срывается на океанское дно. Помощи ждать неоткуда, а кислорода остается лишь на час. Единственный выход из смертельной ловушки - плыть вверх через толщу воды, которая кишит самыми свирепыми хищниками океана.
Description: Отдыхая на солнечных пляжах Мексики, Лиза и ее сестра Кейт решаются на погружение в клетке к большим белым акулам. Но зрелищный аттракцион оборачивается кошмаром, когда клетка с двумя девушками срывается на океанское дно. Помощи ждать неоткуда, а кислорода остается лишь на час. Единственный выход из смертельной ловушки - плыть вверх через толщу воды, которая кишит самыми свирепыми хищниками океана.
Release Date: 2017-05-25T08:00:00Z
Genre: Horror
Artist: Johannes Roberts
Name: 47 Meters Down
General
Complete name : /Users/imac/HandBrake/47.Meters.Down.WEB-DL.1080p.m4v
Format : MPEG-4
Codec ID : M4V
File size : 4.11 GiB
Duration : 1h 25mn
Overall bit rate mode : Variable
Overall bit rate : 6 881 Kbps
Movie name : 47 Meters Down
Performer : Johannes Roberts
Director : Йоханнес Робертс
Actor : Мэнди Мур / Клер Холт / Крис Дж. Джонсон / Яни Гельман / Сантьяго Сегура / Мэттью Модайн / Майра Хуарес / Axel Mansilla / Татьяна Шитова / Наталья Фищук / Илья Бледный / Диомид Виноградов / Валерий Сторожик
Screenplay by : Йоханнес Робертс / Эрнест Риера
Producer : Джеймс Харрис / Марк Лэйн / Иэн Абрахамс
Production studio : Entertainment Studios
Genre : Horror
ContentType : Short Film
Description : Отдыхая на солнечных пляжах Мексики, Лиза и ее сестра Кейт решаются на погружение в клетке к большим белым акулам. Но зрелищный аттракцион оборачивается кошмаром, когда клетка с двумя девушками срывается на океанское дно. Помощи ждать неоткуда, а кислорода остается лишь на час. Единственный выход из смертельной ловушки - плыть вверх через толщу воды, которая кишит самыми свирепыми хищниками океана.
Recorded date : UTC 2017-05-25 08:00:00
Encoded date : UTC 2017-09-12 09:41:00
Tagged date : UTC 2017-09-12 09:58:55
Cover : Yes
Rating : None
Title/Sort : 47 Meters Down
LongDescription : Отдыхая на солнечных пляжах Мексики, Лиза и ее сестра Кейт решаются на погружение в клетке к большим белым акулам. Но зрелищный аттракцион оборачивается кошмаром, когда клетка с двумя девушками срывается на океанское дно. Помощи ждать неоткуда, а кислорода остается лишь на час. Единственный выход из смертельной ловушки - плыть вверх через толщу воды, которая кишит самыми свирепыми хищниками океана.
AppleStoreCatalogID : 1258239441
Vendor : Apple:vendor_id:2017-777887
ContentRating : mpaa|PG-13|300|

Video #1
ID : 1
Format : AVC
Format/Info : Advanced Video Codec
Format profile : High@L4
Format settings, CABAC : Yes
Format settings, ReFrames : 4 frames
Codec ID : avc1
Codec ID/Info : Advanced Video Coding
Duration : 1h 25mn
Bit rate : 5 255 Kbps
Width : 1 920 pixels
Height : 1 080 pixels
Display aspect ratio : 16:9
Frame rate mode : Constant
Frame rate : 25.000 fps
Color space : YUV
Chroma subsampling : 4:2:0
Bit depth : 8 bits
Scan type : Progressive
Bits/(Pixel*Frame) : 0.101
Stream size : 3.14 GiB (76%)
Title : Main Program
Language : English
Encoded date : UTC 2017-09-12 09:41:00
Tagged date : UTC 2017-09-12 09:41:10
Color range : Limited
Color primaries : BT.709
Transfer characteristics : BT.709
Matrix coefficients : BT.709

Video #2
ID : 10
Format : JPEG
Codec ID : jpeg
Duration : 1h 25mn
Bit rate mode : Variable
Bit rate : 846 bps
Width : 640 pixels
Height : 360 pixels
Display aspect ratio : 16:9
Frame rate mode : Variable
Frame rate : 0.003 fps
Minimum frame rate : 0.002 fps
Maximum frame rate : 0.004 fps
Color space : YUV
Chroma subsampling : 4:2:0
Bit depth : 8 bits
Compression mode : Lossy
Bits/(Pixel*Frame) : 1.224
Stream size : 447 KiB (0%)
Title : Chapter Images
Language : English
Encoded date : UTC 2017-09-12 09:41:20
Tagged date : UTC 2017-09-12 09:41:20

Audio #1
ID : 2
Format : AAC
Format/Info : Advanced Audio Codec
Format profile : LC
Codec ID : 40
Duration : 1h 25mn
Bit rate mode : Variable
Bit rate : 155 Kbps
Maximum bit rate : 243 Kbps
Channel(s) : 2 channels
Channel positions : Front: L R
Sampling rate : 48.0 KHz
Compression mode : Lossy
Stream size : 94.7 MiB (2%)
Title : Russian Stereo
Language : Russian
Encoded date : UTC 2017-09-12 09:41:00
Tagged date : UTC 2017-09-12 09:41:12

Audio #2
ID : 3
Format : AAC
Format/Info : Advanced Audio Codec
Format profile : LC
Codec ID : 40
Duration : 1h 25mn
Bit rate mode : Variable
Bit rate : 153 Kbps
Maximum bit rate : 265 Kbps
Channel(s) : 2 channels
Channel positions : Front: L R
Sampling rate : 48.0 KHz
Compression mode : Lossy
Stream size : 93.5 MiB (2%)
Title : English Stereo
Language : English
Encoded date : UTC 2017-09-12 09:41:00
Tagged date : UTC 2017-09-12 09:41:12

Audio #3
ID : 4
Format : AAC
Format/Info : Advanced Audio Codec
Format profile : LC
Codec ID : 40
Duration : 1h 25mn
Bit rate mode : Variable
Bit rate : 153 Kbps
Maximum bit rate : 246 Kbps
Channel(s) : 2 channels
Channel positions : Front: L R
Sampling rate : 48.0 KHz
Compression mode : Lossy
Stream size : 93.8 MiB (2%)
Title : Ukrainian Stereo
Language : Ukrainian
Encoded date : UTC 2017-09-12 09:41:01
Tagged date : UTC 2017-09-12 09:41:12

Audio #4
ID : 5
Format : AC-3
Format/Info : Audio Coding 3
Mode extension : CM (complete main)
Format settings, Endianness : Big
Codec ID : ac-3
Duration : 1h 25mn
Bit rate mode : Constant
Bit rate : 384 Kbps
Channel(s) : 6 channels
Channel positions : Front: L C R, Side: L R, LFE
Sampling rate : 48.0 KHz
Bit depth : 16 bits
Compression mode : Lossy
Stream size : 235 MiB (6%)
Title : Russian DD 5.1
Language : Russian
Encoded date : UTC 2017-09-12 09:41:01
Tagged date : UTC 2017-09-12 09:41:10

Audio #5
ID : 6
Format : AC-3
Format/Info : Audio Coding 3
Mode extension : CM (complete main)
Format settings, Endianness : Big
Codec ID : ac-3
Duration : 1h 25mn
Bit rate mode : Constant
Bit rate : 384 Kbps
Channel(s) : 6 channels
Channel positions : Front: L C R, Side: L R, LFE
Sampling rate : 48.0 KHz
Bit depth : 16 bits
Compression mode : Lossy
Stream size : 235 MiB (6%)
Title : English DD 5.1
Language : English
Encoded date : UTC 2017-09-12 09:41:01
Tagged date : UTC 2017-09-12 09:41:10

Audio #6
ID : 7
Format : AC-3
Format/Info : Audio Coding 3
Mode extension : CM (complete main)
Format settings, Endianness : Big
Codec ID : ac-3
Duration : 1h 25mn
Bit rate mode : Constant
Bit rate : 384 Kbps
Channel(s) : 6 channels
Channel positions : Front: L C R, Side: L R, LFE
Sampling rate : 48.0 KHz
Bit depth : 16 bits
Compression mode : Lossy
Stream size : 235 MiB (6%)
Title : Ukrainian DD 5.1
Language : Ukrainian
Encoded date : UTC 2017-09-12 09:41:01
Tagged date : UTC 2017-09-12 09:41:10

Text
ID : 8
Format : Timed Text
Muxing mode : sbtl
Codec ID : tx3g
Duration : 1h 19mn
Bit rate mode : Variable
Bit rate : 51 bps
Stream size : 29.6 KiB (0%)
Title : English full
Language : English
Encoded date : UTC 2017-09-12 09:41:01
Tagged date : UTC 2017-09-12 09:41:10

Menu #1
00:00:00.000 : Глава 1
00:07:12.360 : Глава 2
00:13:26.920 : Глава 3
00:19:54.360 : Глава 4
00:26:10.920 : Глава 5
00:32:42.920 : Глава 6
00:37:46.800 : Глава 7
00:45:21.480 : Глава 8
00:52:15.160 : Глава 9
00:57:55.440 : Глава 10
01:02:35.920 : Глава 11
01:09:35.520 : Глава 12
01:14:56.360 : Глава 13

Menu #2
ID : 9
Codec ID : text
Duration : 1h 25mn
Language : English
Encoded date : UTC 2017-09-12 09:41:12
Tagged date : UTC 2017-09-12 09:41:12
00:00:00.000 : Глава 1
00:07:12.360 : Глава 2
00:13:26.920 : Глава 3
00:19:54.360 : Глава 4
00:26:10.920 : Глава 5
00:32:42.920 : Глава 6
00:37:46.800 : Глава 7
00:45:21.480 : Глава 8
00:52:15.160 : Глава 9
00:57:55.440 : Глава 10
01:02:35.920 : Глава 11
01:09:35.520 : Глава 12
01:14:56.360 : Глава 13
Bit rate mode : VBR
Релиз подготовлен для просмотра на Apple TV, iPad, iPhone, iPod Touch.
Для просмотра данного релиза на компьютере с ОС Windows рекомендуется использовать VLC media player

Трекер:  [ 12-Сен-2017 13:42 ]

  

Скачать .torrent

Размер .torrent файла 41 KB


Размер: 4.11 GB
Хэш (hash) релиза: 507a018f7874960bed44d1bdbe6d3bb5a4beda4a

Еще никто не оставлял запись к записи скачать торрент [ATV3] Синяя бездна 47 Meters Down . Будь первым!

!Обратная связь