Скачать через торрент Чужие дети Фильм бесплатно в хорошем качестве torrent

Скачивайте на UnionPeer.org фильмы через торрент без регистрации. Новинки кино в хорошем качестве через торрент. На UnionPeer.org можно скачать через торрент фильмы 2014 и 2015 годов. Самые новые фильмы.

Скачать торрент Чужие дети бесплатно через .torrent фильм мультфильм сериал

Если у вас наблюдаются проблемы со скриншотами, переходом по ссылками, скачиванием торрентов - проблемы в блокировщике рекламы AdBlock. #хорошегоДня!


Статистика раздачи
Размер:  3.61 GB   |    Зарегистрирован:  2 месяца 12 дней   |    .torrent скачан:  3 раза   |   
Раздают:  1  
   
Загрузка...
 
Автор Сообщение

Galfimbul

avatar Galfimbul


Чужие дети

Страна: СССР
Жанр: драма, мелодрама, семейный
Год выпуска: 1958
Продолжительность: 01:12:23

Перевод: Оригинал
Субтитры: нет
Оригинальная аудиодорожка: русская

Режиссер: Тенгиз Абуладзе

В ролях: Цицино Цицишвили, Нина Зорская, Отар Коберидзе, Борис Кордунов, А. Кандаурашвили, Светлана Коновалова, Нани Чиквинидзе, Маргарита Корабельникова, Михо Борашвили, Александра Харитонова

Описание: Студентка Нато познакомилась на улице с двумя маленькими детьми, а вскоре и с их отцом, переживающим сложный период в отношениях с любимой женщиной. Нато, привязавшись к детям, выходит замуж за их отца, и… скоро остается одна с двумя детьми на руках.

Меню: есть, статичное

Тип релиза: DVD5
Контейнер: DVD-Video

Видео: PAL 4:3 (720x576(0.579)) MPEG Video, 25,000 кадр/сек, 6000 Кбит/сек
Аудио: Russian (Dolby AC-3, 2 ch) 192 Кбит/сек, 48.0 КГц
Имеретинские эскизы Упрощенное издание ДВД5
Весь!!! Отар Иоселиани ЗДЕСЬ
Пиросмани Коллекционное издание ДВД9 Упрощенное издание ДВД5
Пловец Упрощенное издание ДВД5
Мамлюк Упрощенное издание ДВД5
Мачеха Саманишвили Упрощенное издание ДВД5
Робинзонада, или мой английский дедушка Упрощенное издание ДВД5
Кукарача Упрощенное издание ДВД5
Чужие дети Упрощенное издание ДВД5
Белая роза бессмертия Упрощенное издание ДВД5
Путешествие молодого композитора Упрощенное издание ДВД5
Первая ласточка Коллекционное издание ДВД9
Хареба и Гоги Коллекционное издание ДВД9
Лурджа Магданы Коллекционное издание ДВД9
Мелодии Верийского квартала Коллекционное издание ДВД9
Ашик-Кериб Коллекционное издание ДВД9
Ожерелье для моей любимой Упрощенное издание ДВД5
Девушка со швейной машинкой Упрощенное издание ДВД5
Чермен Коллекционное издание ДВД9
Древо желания Коллекционное издание ДВД9
Легенда о Сурамской крепости Коллекционное издание ДВД9
Мольба Коллекционное издание ДВД9
Покаяние Коллекционное издание ДВД9
Голубые горы или Неправдоподобная история Упрощенное издание ДВД5
Отец солдата Коллекционное издание ДВД9
Солнце неспящих Коллекционное издание ДВД9
Настоящий тбилисец и другие Упрощенное издание ДВД5
Кето и Котэ Упрощенное издание ДВД5
Я, бабушка, Илико и Илларион Упрощенное издание ДВД5
13 тринадцать Коллекционное издание ДВД9
Общее
Полное имя : CHUJIE_DETI\VIDEO_TS\VTS_04_1.VOB
Формат : MPEG-PS
Размер файла : 1024 Мбайт
Продолжительность : 22 м. 32 с.
Режим общего битрейта : Постоянный
Общий поток : 6350 Кбит/сек

Видео
Идентификатор : 224 (0xE0)
Формат : MPEG Video
Версия формата : Version 2
Профиль формата : Main@Main
Параметр BVOP формата : Да
Параметр матрицы формата : Выборочная
Параметр GOP формата : M=2, N=4
Структура изображения : Frame
Продолжительность : 22 м. 32 с.
Вид битрейта : Постоянный
Битрейт : 6000 Кбит/сек
Ширина : 720 пикселей
Высота : 576 пикселей
Соотношение сторон : 4:3
Частота кадров : 25,000 кадров/сек
Стандарт вещания : PAL
Цветовое пространство : YUV
Субдискретизация насыщенности : 4:2:0
Битовая глубина : 8 бит
Тип развёртки : Чересстрочная
Порядок развёртки : Верхнее поле первое
Метод сжатия : С потерями
Бит/(Пиксели*Кадры) : 0.579
Временной код первого кадра : 08:00:04:04
Оригинал временного кода : Group of pictures header
GOP, открыто/закрыто : Закрыто
Размер потока : 973 Мбайт (95%)

Аудио
Идентификатор : 189 (0xBD)-128 (0x80)
Формат : AC-3
Формат/Информация : Audio Coding 3
Параметр Endianness формата : Big
Режим смешивания : DVD-Video
Продолжительность : 22 м. 32 с.
Вид битрейта : Постоянный
Битрейт : 192 Кбит/сек
Каналы : 2 канала
Расположение каналов : Front: L R
Частота : 48,0 КГц
Частота кадров : 31,250 кадров/сек (1536 spf)
Битовая глубина : 16 бит
Метод сжатия : С потерями
Размер потока : 31,0 Мбайт (3%)
ServiceKind/String : Complete Main


Трекер:  [ 12-Сен-2017 13:36 ]

  

Скачать .torrent

Размер .torrent файла 20 KB


Размер: 3.61 GB
Хэш (hash) релиза: 9694a0c656b56f92a81cdfc7ece7f24efb4e2fbd
Подписка на обновления:

Торренты, похожие на Чужие дети скачать торрент

Форум Название Автор Размер S L Добавлен
Российские фильмы до 2016 ·· Чужие дети (Юрий Лейзеров) [2013, Россия, мелодрама, WEB-DLRip] Galfimbul 784590848748 MB 0 0 1448698635

11:17

28-Ноя-15

Еще никто не оставлял запись к записи скачать торрент Чужие дети . Будь первым!

!Обратная связь