Скачать через торрент Игра в дом Playing House Фильм бесплатно в хорошем качестве torrent

Скачивайте на UnionPeer.org фильмы через торрент без регистрации. Новинки кино в хорошем качестве через торрент. На UnionPeer.org можно скачать через торрент фильмы 2014 и 2015 годов. Самые новые фильмы.

Скачать торрент Игра в дом Playing House бесплатно через .torrent фильм мультфильм сериал

Если у вас наблюдаются проблемы со скриншотами, переходом по ссылками, скачиванием торрентов - проблемы в блокировщике рекламы AdBlock. #хорошегоДня!


Статистика раздачи
Размер:  359 MB   |    Зарегистрирован:  9 дней   |    .torrent скачан:  4 раза   |   
Раздают:  1  
   
Загрузка...
 
Автор Сообщение

Galfimbul

avatar Galfimbul


Игра в дом | Playing House

Год выпуска: 2017
Страна: США
Жанр: комедия
Продолжительность: 22 мин.

Перевод: Многоголосый закадровый ViruseProject

Режиссёр: Стюарт МакДональд, Тим Киркби, Джеффри Блитц

В ролях: Леннон Парэм, Джессика Ст. Клэр, Кигэн-Майкл Ки, Брэд Моррис и др.

Описание: Подруги детства Мегги и Эмма вместе выросли в очаровательном пригороде Коннектикута. Эмма сделала успешную карьеру и получила шанс наконец покинуть провинцию и переехать в Китай, а Мегги вышла замуж и вот-вот должна родить ребенка.
Однажды Мегги узнает, что у ее любимого мужа Брюса роман на стороне. Не в силах смириться с предательством, женщина тут же подает на развод. Тогда Эмма решает бросить свою высокооплачиваемую работу и остаться с Мегги, чтобы помочь растить ребенка. Героиням сериала «Игра в дом» предстоит самое волнующее приключение в жизни — материнство.

Ссылка на предыдущие и альтернативные раздачи

Качество: WEBRip
Формат: AVI
Видео: 720x400 (1.80:1), 23.976 fps, XviD build 50 ~1977 kbps avg, 0.29 bit/pixel
Аудио 1: 48 kHz, AC3 Dolby Digital, 2/0 (L,R) ch, ~192 kbps
Аудио 2: 48 kHz, AC3 Dolby Digital, 2/0 (L,R) ch, ~192 kbps
Субтитры: русские (ViruseProject)
Реклама: Видеоролик Seasonvar в начале (10 сек)

[b]Внимание! Раздача ведётся путём добавления новых серий; при каждом добавлении создаётся новый торрент. Чтобы начать докачку новой серии, пользователям необходимо сделать следующее:
(1) остановить скачивание,
(2) удалить старый торрент у себя из клиента (старые серии удалять не надо),
(3) скачать новый торрент и запустить его у себя в клиенте вместо старого, при этом указать клиенту путь в старую папку куда и должно происходить скачивание новых серий.

Eсли вы уже удалили старые серии, то предотвратить повторную закачку старых серий можно, отжав галочку в соответствующих местах при запуске нового торрента. По возможности, желательно не удалять старые серии как можно дольше чтобы релизёр не столько продолжал раздавать старые серии, а смог сконцентрироваться на новых.
General
Complete name : E:\Playing.House.S03E01.400p.ViruseProject.avi
Format : AVI
Format/Info : Audio Video Interleave
File size : 359 MiB
Duration : 21 min 15 s
Overall bit rate : 2 362 kb/s
Writing application : VirtualDubMod 1.5.10.2 (build 2540/release)
Writing library : VirtualDubMod build 2540/release

Video
ID : 0
Format : MPEG-4 Visual
Format profile : Advanced Simple@L5
Format settings, BVOP : 1
Format settings, QPel : No
Format settings, GMC : No warppoints
Format settings, Matrix : Default (MPEG)
Codec ID : XVID
Codec ID/Hint : XviD
Duration : 21 min 15 s
Bit rate : 1 964 kb/s
Width : 720 pixels
Height : 400 pixels
Display aspect ratio : 16:9
Frame rate : 23.976 (24000/1001) FPS
Color space : YUV
Chroma subsampling : 4:2:0
Bit depth : 8 bits
Scan type : Progressive
Compression mode : Lossy
Bits/(Pixel*Frame) : 0.284
Stream size : 298 MiB (83%)
Writing library : XviD 1.2.1 (UTC 2008-12-04)

Audio #1
ID : 1
Format : AC-3
Format/Info : Audio Coding 3
Format settings, Endianness : Big
Codec ID : 2000
Duration : 21 min 15 s
Bit rate mode : Constant
Bit rate : 192 kb/s
Channel(s) : 2 channels
Channel positions : Front: L R
Sampling rate : 48.0 kHz
Frame rate : 31.250 FPS (1536 SPF)
Bit depth : 16 bits
Compression mode : Lossy
Stream size : 29.2 MiB (8%)
Alignment : Split accross interleaves
Interleave, duration : 42 ms (1.00 video frame)
Interleave, preload duratio : 500 ms
Service kind : Complete Main

Audio #2
ID : 2
Format : AC-3
Format/Info : Audio Coding 3
Format settings, Endianness : Big
Codec ID : 2000
Duration : 21 min 15 s
Bit rate mode : Constant
Bit rate : 192 kb/s
Channel(s) : 2 channels
Channel positions : Front: L R
Sampling rate : 48.0 kHz
Frame rate : 31.250 FPS (1536 SPF)
Bit depth : 16 bits
Compression mode : Lossy
Stream size : 29.2 MiB (8%)
Alignment : Split accross interleaves
Interleave, duration : 42 ms (1.00 video frame)
Interleave, preload duratio : 500 ms
Service kind : Complete Main


Трекер:  [ 12-Сен-2017 13:18 ]

  

Скачать .torrent

Размер .torrent файла 14 KB


Размер: 359 MB
Хэш (hash) релиза: 3d574f39ee50be4204ffc684f15581d6a0c3ec0a
Подписка на обновления:

Еще никто не оставлял запись к записи скачать торрент Игра в дом Playing House . Будь первым!

!Обратная связь