Скачать через торрент Чужестранка Outlander Фильм бесплатно в хорошем качестве torrent

Скачивайте на UnionPeer.org фильмы через торрент без регистрации. Новинки кино в хорошем качестве через торрент. На UnionPeer.org можно скачать через торрент фильмы 2014 и 2015 годов. Самые новые фильмы.

Скачать торрент Чужестранка Outlander бесплатно через .torrent фильм мультфильм сериал

Если у вас наблюдаются проблемы со скриншотами, переходом по ссылками, скачиванием торрентов - проблемы в блокировщике рекламы AdBlock. #хорошегоДня!


Статистика раздачи
Размер:  1.82 GB   |    Зарегистрирован:  10 дней   |    .torrent скачан:  11 раз   |   
Раздают:  1  
   
Загрузка...
 
Автор Сообщение

Galfimbul

avatar Galfimbul


Чужестранка / Outlander
Год выпуска: 2017
Страна: США
Жанр: фантастика, драма, мелодрама
Продолжительность: ~00:55:00Перевод:
Профессиональный (многоголосый закадровый) NewStudio
Профессиональный (многоголосый закадровый) BaibaKoРежиссёр: Джон Дал, Анна Ферстер, Брайан Келли, Метин Хусейн, Фил Джон, Майк Баркер, Ричард КларкВ ролях: Катрина Балф, Сэм Юэн, Тобайас Мензис, Грэм МакТавиш, Дункан Лакруа, Грант О`Рурк, Стивен Уолтерс, Джеймс Флит, Трэйси Уилкинсон, Финн Ден Хертог, Билл Патерсон, Нелл Хадсон, Гари Льюис, Лотте Вербеек, Аннет Бэдленд, Лора Доннелли, Стивен Кри, Джон Хеффернан, Прентис Хэнкок, Дуглас Расселл, Тим МакИннерни, Джон Сешнс, Саймон Кэллоу и др.Описание: Англия, вскоре после окончания Второй мировой войны. У Клэр, проработавшей операционной медсестрой все военные годы, наконец появилась возможность воссоединиться с мужем - ученым и строить совместные планы на будущее их семьи. Одним ранним утром гроза застигает ее во время прогулки среди камней, которые местные ведуньи называют мистическими. Во время очередного разряда молнии, она неожиданно переносится в прошлое, в Шотландию середины 18 – ого столетия. Теперь единственным смыслом жизни женщины стала цель вернуться к мужу, в свое время, но для этого сначала необходимо было просто выжить в очень непростых условиях, среди вечно воюющих и отнюдь не цивилизованных мужчин. Так, ради собственной безопасности, ей приходится выйти замуж за влюбленного в нее шотландского рыцаря старинного благородного рода. Однако, когда, всем сердцем желая Клэр помочь, он находит возможность вернуть ее в будущее, она начинает сомневаться в своем желании, ведь с Джейми их начинают связывать поистине крепкие чувства. Она опять стоит у мистических камней. Какую жизнь ей выбрать?Доп. информация:
Качество: WEB-DL 720p
Контейнер: MKV

Видео: H.264, 1280x720 (16:9), 23,976 fps, ~4500 kbps, 0.125 bit/pixel
Аудио # rus: AC3, 48 kHz, 6 ch, 640 kbps - NewStudio
Аудио # rus: AC3, 48 kHz, 6 ch, 640 kbps - BaibaKo
Аудио # eng: AC3, 48 kHz, 6 ch, 640 kbps - оригинал
Субтитры: русские (CaptainNEMO), английские

Реклама: отсутствует
Релиз: Grandfather61
Работа со звуком: Grandfather61
Перевод субтитров: CaptainNEMO
General
Unique ID : 196323731299411123930764606595822319072 (0x93B293463A3EE7C6AC226EC51C10F5E0)
Complete name : G:\Films\Outlander.S03.720p.WEBRip.2xRus.Eng\Outlander.S03E01.720p.WEB-DL.2xRus.Eng.mkv
Format : Matroska
Format version : Version 4 / Version 2
File size : 1.82 GiB
Duration : 54mn 19s
Overall bit rate mode : Variable
Overall bit rate : 4 796 Kbps
Encoded date : UTC 2017-09-12 05:48:00
Writing application : mkvmerge v15.0.0 ('Duel with the Devil') 64-bit
Writing library : libebml v1.3.5 + libmatroska v1.4.5

Video
ID : 1
Format : AVC
Format/Info : Advanced Video Codec
Format profile : High@L3.1
Format settings, CABAC : Yes
Format settings, ReFrames : 5 frames
Codec ID : V_MPEG4/ISO/AVC
Duration : 54mn 19s
Bit rate mode : Variable
Bit rate : 2 140 Kbps
Maximum bit rate : 4 500 Kbps
Width : 1 280 pixels
Height : 720 pixels
Display aspect ratio : 16:9
Frame rate mode : Constant
Frame rate : 23.976 (24000/1001) fps
Color space : YUV
Chroma subsampling : 4:2:0
Bit depth : 8 bits
Scan type : Progressive
Bits/(Pixel*Frame) : 0.097
Stream size : 832 MiB (45%)
Default : Yes
Forced : No
Color range : Limited
Color primaries : BT.709
Transfer characteristics : BT.709
Matrix coefficients : BT.709

Audio #1
ID : 2
Format : AC-3
Format/Info : Audio Coding 3
Mode extension : CM (complete main)
Format settings, Endianness : Big
Codec ID : A_AC3
Duration : 54mn 19s
Bit rate mode : Constant
Bit rate : 640 Kbps
Channel(s) : 6 channels
Channel positions : Front: L C R, Side: L R, LFE
Sampling rate : 48.0 KHz
Frame rate : 31.250 fps (1536 spf)
Compression mode : Lossy
Stream size : 249 MiB (13%)
Title : NewStudio
Language : Russian
Default : Yes
Forced : No

Audio #2
ID : 3
Format : AC-3
Format/Info : Audio Coding 3
Mode extension : CM (complete main)
Format settings, Endianness : Big
Codec ID : A_AC3
Duration : 54mn 19s
Bit rate mode : Constant
Bit rate : 640 Kbps
Channel(s) : 6 channels
Channel positions : Front: L C R, Side: L R, LFE
Sampling rate : 48.0 KHz
Frame rate : 31.250 fps (1536 spf)
Compression mode : Lossy
Stream size : 249 MiB (13%)
Title : BaibaKo
Language : Russian
Default : No
Forced : No

Audio #3
ID : 4
Format : AC-3
Format/Info : Audio Coding 3
Mode extension : CM (complete main)
Format settings, Endianness : Big
Codec ID : A_AC3
Duration : 54mn 19s
Bit rate mode : Constant
Bit rate : 640 Kbps
Channel(s) : 6 channels
Channel positions : Front: L C R, Side: L R, LFE
Sampling rate : 48.0 KHz
Frame rate : 31.250 fps (1536 spf)
Compression mode : Lossy
Stream size : 249 MiB (13%)
Title : eng
Language : English
Default : No
Forced : No

Audio #4
ID : 6
Format : E-AC-3
Format/Info : Audio Coding 3
Format settings, Endianness : Big
Codec ID : A_EAC3
Duration : 54mn 19s
Bit rate mode : Constant
Bit rate : 640 Kbps
Channel(s) : 6 channels
Channel positions : Front: L C R, Side: L R, LFE
Sampling rate : 48.0 KHz
Frame rate : 187.500 fps (256 spf)
Compression mode : Lossy
Stream size : 249 MiB (13%)
Language : English
Default : No
Forced : No

Text #1
ID : 5
Format : UTF-8
Codec ID : S_TEXT/UTF8
Codec ID/Info : UTF-8 Plain Text
Title : CaptainNEMO
Language : Russian
Default : No
Forced : No

Text #2
ID : 7
Format : UTF-8
Codec ID : S_TEXT/UTF8
Codec ID/Info : UTF-8 Plain Text
Language : English
Default : No
Forced : No
Внимание! Раздача ведётся путём добавления новых серий; при каждом добавлении создётся новый торрент. Чтобы начать докачку новой серии, пользователям необходимо сделать следующее:
Остановить скачивание.
Удалить старый торрент у себя из клиента (старые серии удалять не надо).
Скачать новый торрент и запустить его у себя в клиенте вместо старого, при этом указать клиенту путь в старую папку куда и должно происходить скачивание новых серий.
Ваш клиент при этом должен произвести хеширование (проверку) старой папки (если не производит сам - помогите ему сделать это), и будет докачивать только те серии которых у вас ещё нет. Старые серии при этом не удаляются, а продолжают раздаваться!
Eсли вы уже удалили старые серии, то предотвратить повторную закачку старых серий можно, отжав галочку в соответсвующих местах при запуске нового торрента. По возможности, желательно не удалять старые серии как можно дольше чтобы релизёр не столько продолжал раздавать старые серии, а смог сконцентрироваться на новых.


Трекер:  [ 12-Сен-2017 11:24 ]

  

Скачать .torrent

Размер .torrent файла 18 KB


Размер: 1.82 GB
Хэш (hash) релиза: 46cce414f5854d535723e37a2202b7b6c850282f
Подписка на обновления:

Торренты, похожие на Чужестранка Outlander скачать торрент

Форум Название Автор Размер S L Добавлен
Зарубежные сериалы ·· Чужестранка / Outlander / Сезон: 3 / Серии: 1 из 13 (Брайан Келли, Анна Ферстер / Brian Kelly, Anna Foerster) [2016, США, фантастика, драма, мелодрама, WEB-DL 1080p] MVO (NewStudio, BaibaKo) + Original + Subs (Rus, Eng) Galfimbul 33784593533.15 GB 0 0 1505199278

09:54

12-Сен-17

Зарубежные сериалы ·· Чужестранка / Outlander / Сезон: 3 / Серии: 1 из 13 (Анна Ферстер, Брайан Келли, Ричард Кларк, Джон Дал) [2017, США, фантастика, драма, мелодрама, WEBRip] MVO (Baibako) + Original Galfimbul 682016768650 MB 0 0 1505141657

17:54

11-Сен-17

Зарубежные сериалы ·· Чужестранка / Outlander / Сезон: 2 / Серии: 1-3 из 13 (Брайан Келли, Анна Ферстер / Brian Kelly, Anna Foerster) [2016, фантастика, драма, мелодрама, WEB-DL 720p] MVO (NewStudio, Baibako, FocusStudio) + Original + Subs (Rus, Eng) Galfimbul 81625919557.6 GB 0 0 1462213085

21:18

2-Май-16

Зарубежные сериалы ·· Чужестранка / Outlander / Сезон: 2 / Серии: 1-3 из 13 (Анна Ферстер, Брайан Келли, Ричард Кларк) [2016, фантастика, драма, мелодрама, WEB-DLRip] MVO (NewStudio) + Original + Subs (Rus, Eng) Galfimbul 22025224762.05 GB 0 0 1461831692

11:21

28-Апр-16

Зарубежные сериалы ·· Чужестранка / Outlander / Сезон: 2 / Серии: 1-3 из 13 (Брайан Келли, Анна Ферстер / Brian Kelly, Anna Foerster) [2016, фантастика, драма, мелодрама, WEBRip] MVO (BaibaKo) + Original Galfimbul 23636263452.2 GB 0 0 1461601496

19:24

25-Апр-16

Зарубежные сериалы ·· Чужестранка / Outlander / Сезон: 2 / Серии: 1-3 из 13 (Брайан Келли, Анна Ферстер / Brian Kelly, Anna Foerster) [2016, фантастика, драма, мелодрама, WEBRip 720p] MVO (BaibaKo) + Original Galfimbul 62006381755.77 GB 0 0 1461599682

18:54

25-Апр-16

Еще никто не оставлял запись к записи скачать торрент Чужестранка Outlander . Будь первым!

!Обратная связь