Скачать через торрент музыку бесплатно без регистрации torrent

Если у вас наблюдаются проблемы со скриншотами, переходом по ссылками, скачиванием торрентов - проблемы в блокировщике рекламы AdBlock. #хорошегоДня!


Статистика раздачи
Размер:  282 MB   |    Зарегистрирован:  2 месяца 11 дней   |    .torrent скачан:  8 раз   |   
Раздают:  1  
   
Загрузка...
 
Автор Сообщение

Galfimbul

avatar Galfimbul


Van Zyl and Gulch / Regeneration Mode
Жанр: Electronic, Berlin School
Носитель: CD
Страна-производитель диска (релиза): USA
Год издания: 1994
Издатель (лейбл): Synkronos Music ‎
Номер по каталогу: SYNK024
Страна исполнителя (группы): USA
Аудиокодек: FLAC (*.flac)
Тип рипа: tracks+.cue
Битрейт аудио: lossless
Продолжительность: 01:02:56
Источник (релизер): Собственный рип
Наличие сканов в содержимом раздачи: да

Треклист:
01. Sector Zero Zero One [00:29:32]
02. Sub-Space Fields [00:08:32]
03. Shield Failure [00:07:39]
04. The Automatons [00:06:19]
05. Regeneration Mode [00:10:52]
Exact Audio Copy V1.0 beta 3 from 29. August 2011

EAC extraction logfile from 12. September 2017, 9:46

Van Zyl and Gulch / Regeneration Mode

Used drive : PIONEER DVD-RW DVR-221L Adapter: 3 ID: 0

Read mode : SecureUtilize accurate stream : YesDefeat audio cache : YesMake use of C2 pointers : No

Read offset correction : 6Overread into Lead-In and Lead-Out : NoFill up missing offset samples with silence : YesDelete leading and trailing silent blocks : NoNull samples used in CRC calculations : YesUsed interface : Installed external ASPI interfaceGap handling : Appended to previous track

Used output format : User Defined EncoderSelected bitrate : 768 kBit/sQuality : HighAdd ID3 tag : NoCommand line compressor : C:\Program Files\Exact Audio Copy\Flac\flac.exeAdditional command line options : -8 -V -T "ARTIST=%artist%" -T "TITLE=%title%" -T "ALBUM=%albumtitle%" -T "DATE=%year%" -T "TRACKNUMBER=%tracknr%" -T "GENRE=%genre%" %source%

TOC of the extracted CD

Track | Start | Length | Start sector | End sector --------------------------------------------------------- 1 | 0:00.00 | 29:32.23 | 0 | 132922 2 | 29:32.23 | 8:32.69 | 132923 | 171391 3 | 38:05.17 | 7:39.69 | 171392 | 205885 4 | 45:45.11 | 6:19.25 | 205886 | 234335 5 | 52:04.36 | 10:52.39 | 234336 | 283274

Track 1

Filename C:\EM archive\Van Zyl and Gulch – Regeneration Mode\01 Sector Zero Zero One.wav

Pre-gap length 0:00:02.00

Peak level 99.9 % Extraction speed 6.2 X Track quality 100.0 % Test CRC 706414F3 Copy CRC 706414F3 Accurately ripped (confidence 4) [7034E7CC] (AR v2) Copy OK

Track 2

Filename C:\EM archive\Van Zyl and Gulch – Regeneration Mode\02 Sub-Space Fields.wav

Peak level 52.2 % Extraction speed 7.2 X Track quality 99.9 % Test CRC 7316DB3C Copy CRC 7316DB3C Accurately ripped (confidence 4) [00ECFB4A] (AR v2) Copy OK

Track 3

Filename C:\EM archive\Van Zyl and Gulch – Regeneration Mode\03 Shield Failure.wav

Peak level 86.8 % Extraction speed 8.1 X Track quality 100.0 % Test CRC E865E6AD Copy CRC E865E6AD Accurately ripped (confidence 4) [ECA67CB7] (AR v2) Copy OK

Track 4

Filename C:\EM archive\Van Zyl and Gulch – Regeneration Mode\04 The Automatons.wav

Peak level 34.5 % Extraction speed 8.3 X Track quality 100.0 % Test CRC E34DDC70 Copy CRC E34DDC70 Accurately ripped (confidence 4) [5D82F60D] (AR v2) Copy OK

Track 5

Filename C:\EM archive\Van Zyl and Gulch – Regeneration Mode\05 Regeneration Mode.wav

Peak level 42.2 % Extraction speed 9.3 X Track quality 100.0 % Test CRC 6BE5015D Copy CRC 6BE5015D Accurately ripped (confidence 4) [CDD3668E] (AR v2) Copy OK

All tracks accurately ripped

No errors occurred

End of status report

---- CUETools DB Plugin V2.1.4

[CTDB TOCID: zYc.bv4qTbrcMdOTwF95CPFpCFE-] foundSubmit result: zYc.bv4qTbrcMdOTwF95CPFpCFE- has been confirmedTrack | CTDB Status 1 | (4/4) Accurately ripped 2 | (4/4) Accurately ripped 3 | (4/4) Accurately ripped 4 | (4/4) Accurately ripped 5 | (3/4) Accurately ripped

==== Log checksum 68F2BB0CCA599C70904D338E36160E7A66F3D487756276DC6DEE0AAD23C07A69 ====
REM GENRE ElectronicREM DATE 1994REM DISCID 480EC105REM COMMENT "ExactAudioCopy v1.0b3"PERFORMER "Van Zyl and Gulch "TITLE "Regeneration Mode"FILE "01 Sector Zero Zero One.flac" WAVE TRACK 01 AUDIO TITLE "Sector Zero Zero One" PERFORMER "Van Zyl and Gulch " INDEX 01 00:00:00FILE "02 Sub-Space Fields.flac" WAVE TRACK 02 AUDIO TITLE "Sub-Space Fields" PERFORMER "Van Zyl and Gulch " INDEX 01 00:00:00FILE "03 Shield Failure.flac" WAVE TRACK 03 AUDIO TITLE "Shield Failure" PERFORMER "Van Zyl and Gulch " INDEX 01 00:00:00FILE "04 The Automatons.flac" WAVE TRACK 04 AUDIO TITLE "The Automatons" PERFORMER "Van Zyl and Gulch " INDEX 01 00:00:00FILE "05 Regeneration Mode.flac" WAVE TRACK 05 AUDIO TITLE "Regeneration Mode" PERFORMER "Van Zyl and Gulch " INDEX 01 00:00:00
AUDIOCHECKER v2.0 beta (build 457) - by Dester - opdester@freemail.hu~~~~~~~~~~~~~~~~~~~~~~~~~~~~~~~~~~-=== DO NOT EDIT THIS FILE! ===-

Path: ...\Van Zyl and Gulch – Regeneration Mode (1994) [FLAC]

1 -=- 01 Sector Zero Zero One.flac -=- CDDA (100%)2 -=- 02 Sub-Space Fields.flac -=- CDDA (100%)3 -=- 03 Shield Failure.flac -=- CDDA (100%)4 -=- 04 The Automatons.flac -=- CDDA (100%)5 -=- 05 Regeneration Mode.flac -=- CDDA (100%)

Summary 100,00% CDDA

212085892


Трекер:  [ 12-Сен-2017 10:30 ]

  

Скачать .torrent

Размер .torrent файла 12 KB


Размер: 282 MB
Хэш (hash) релиза: 7eec5b859cc3d8a04c16af8ae9c0601710adc282

Еще никто не оставлял запись к записи скачать торрент . Будь первым!

!Обратная связь