Скачать через торрент Библиотека Души Kokoro Library бесплатно Аниме Все серии на русском torrent

Если у вас наблюдаются проблемы со скриншотами, переходом по ссылками, скачиванием торрентов - проблемы в блокировщике рекламы AdBlock. #хорошегоДня!


Статистика раздачи
Размер:  3.73 GB   |    Зарегистрирован:  8 дней   |    .torrent скачан:  9 раз   |   
Раздают:  1  
   
Загрузка...
 
Автор Сообщение

Galfimbul

avatar Galfimbul


Библиотека Души / Kokoro Library / Kokoro Toshokan
Страна: Япония
Год выпуска: 2001
Жанр: комедия, повседневность, сказка, драма
Тип: TV
Продолжительность: 13 эп, ~25 мин. серия + спешел 7 мин.
Режиссер: Масунари Кодзи
Студия: Studio DEEN
Перевод на русский: Бегемот
Озвучка двухголосая: ShinkaDan (Sempl): Azazel (муж.) & Chigusa (жен.) (двухголосая)
Работа со звуком: Виктор Нуштаев

Описание: История о трёх сёстрах и их библиотеке явно опредила своё время. Даже комменты выше говорят о том, что мало кому ещё ценны такие тонкие и изящные эмоции и чувства, о которых идёт там речь. А сюжеты просто набиты красотой, лёгкостью, нежностью - как раз тем, чего так мало в нашей жизни, хотя ещё со времён Достоевского так никто и опроверг его гипотезу о том, что как раз это мир и спасёт. Самая ближайшая к "Библиотеке" по сюжету вещь - Tiny snow fairy Sugar. Но если там был концепт и личная драма двух героинь, то здесь накал чувств имеет немного другой угол: утопия в реальности. Люди, живущие эмоциями, которые не парятся по поводу денег, для которых сменяющиеся радость и грусть - самые большие крайности, где каждый рад помочь первому встречному (особо порадовали добрые байкеры)... Попробуйте вспомнить сюжет Попотана - колесо сансары, карма и полная безвыходность того мира, как оказалось, имеет выход и в "Библиотеке Кокоро" этот самый выход показан сочно и подробно...

Доп. информация: Про бытовые плееры, лично мои смарт приставки на андройде спокойно жрут 10 бит и просят ещё.

Качество: DVDRip
Тип релиза: Без хардсаба
Формат видео: MP4
Релиз/Автор рипа: ZaZa-Raws@shyhen
Видео: H.264, 10 bit, 960x720, 2673 Kbps, 23.976 fps
Аудио: AC3, 640 Kbps, 48.0 KHz, 2 ch Язык Русский (в составе контейнера) ; Озвучка: двухголосая: Азазель (муж.) и Чигуса (жен.)
Аудио 2: AC3, 640 Kbps, 48.0 KHz, 2 ch Язык Японский
Субтитры: ASS - внешние, надписи Язык субтитров русский ; Перевод: Бегемот
Субтитры 2: ASS - внешние, полные Язык субтитров русский ; Перевод 2: Бегемот
ОбщееПолное имя : O:\Downloads\[ShinkaDan] Kokoro Library [Azazel & Chigusa]\[ShinkaDan] Kokoro Library - 01 [DVDrip 960x720 H264 AC3] [Azazel & Chigusa].mp4Формат : MPEG-4Профиль формата : Base MediaИдентификатор кодека : isomРазмер файла : 689 МбайтПродолжительность : 24 м.Общий поток : 3955 Кбит/секДата кодирования : UTC 2017-09-10 12:22:54Дата пометки : UTC 2017-09-10 12:22:54Программа кодирования : Yamb 2.1.0.0 [http://yamb.unite-video.com]

ВидеоИдентификатор : 1Формат : AVCФормат/Информация : Advanced Video CodecПрофиль формата : High 10@L3.1Параметр CABAC формата : ДаПараметр ReFrames формата : 6 кадровИдентификатор кодека : avc1Идентификатор кодека/Информация : Advanced Video CodingПродолжительность : 24 м.Битрейт : 2673 Кбит/секМаксимальный битрейт : 7395 Кбит/секШирина : 960 пикселейВысота : 720 пикселейСоотношение сторон : 4:3Режим частоты кадров : ПостоянныйЧастота кадров : 23,976 кадра/секЦветовое пространство : YUVСубдискретизация насыщенности : 4:2:0Битовая глубина : 10 битТип развёртки : ПрогрессивнаяБит/(Пиксели*Кадры) : 0.161Размер потока : 466 Мбайт (68%)Библиотека кодирования : x264 core 125 r2208+677+32 26f090e tMod [10-bit@all X86_64]Настройки программы : cabac=1 / ref=6 / deblock=1:-1:-1 / analyse=0x3:0x131 / me=tesa / subme=10 / psy=1 / fade_compensate=0.00 / psy_rd=0.60:0.10 / mixed_ref=1 / me_range=64 / chroma_me=1 / trellis=2 / 8x8dct=1 / cqm=0 / deadzone=21,11 / fast_pskip=1 / chroma_qp_offset=-3 / threads=12 / lookahead_threads=2 / sliced_threads=0 / nr=0 / decimate=1 / interlaced=0 / bluray_compat=0 / constrained_intra=0 / fgo=0 / bframes=10 / b_pyramid=0 / b_adapt=2 / b_bias=0 / direct=3 / weightb=1 / open_gop=0 / weightp=2 / keyint=250 / keyint_min=23 / scenecut=40 / intra_refresh=0 / rc=crf / mbtree=0 / crf=17.2333 / qcomp=0.60 / qpmin=0 / qpmax=69 / qpstep=4 / ip_ratio=1.40 / pb_ratio=1.30 / aq=1:1.10Язык : JapaneseДата кодирования : UTC 2017-09-10 12:13:00Дата пометки : UTC 2017-09-10 12:23:21

Аудио #1Идентификатор : 2Формат : AC-3Формат/Информация : Audio Coding 3Расширение режима : CM (complete main)Параметр Endianness формата : BigИдентификатор кодека : ac-3Продолжительность : 24 м.Вид битрейта : ПостоянныйБитрейт : 640 Кбит/секМаксимальный битрейт : 676 Кбит/секКаналы : 2 каналаРасположение каналов : Front: L RЧастота : 48,0 КГцБитовая глубина : 16 битМетод сжатия : С потерямиРазмер потока : 112 Мбайт (16%)Заголовок : Azazel and Chigusa from ShinkaDanЯзык : RussianДата кодирования : UTC 2017-09-10 12:23:09Дата пометки : UTC 2017-09-10 12:23:21

Аудио #2Идентификатор : 3Формат : AC-3Формат/Информация : Audio Coding 3Расширение режима : CM (complete main)Параметр Endianness формата : BigИдентификатор кодека : ac-3Продолжительность : 24 м.Вид битрейта : ПостоянныйБитрейт : 640 Кбит/секМаксимальный битрейт : 676 Кбит/секКаналы : 2 каналаРасположение каналов : Front: L RЧастота : 48,0 КГцБитовая глубина : 16 битМетод сжатия : С потерямиРазмер потока : 112 Мбайт (16%)Заголовок : ac3:lang=ja@GPAC0.6.2-DEV-rev1265-g3a160d0-masterЯзык : JapaneseДата кодирования : UTC 2017-09-10 12:23:15Дата пометки : UTC 2017-09-10 12:23:21
01. С нынешнего дня с нами
02. То, что я могу прямо сейчас
03. Секрет госпожи Лесы
04. Девиз библиотекаря
05. Библиотека под колпаком
06. Компароид-библиотекарь
07. День без Души
08. Хочу к Маме!
09. Чудо
10. Библиотеки не станет
11. Дневник Джорджа
12. Душа, Надежда, Мира
13. Зима в библиотеке Души
SP. Kokoro Library - Communication Clips
...4507355 - альтернативная озвучка
...844123 - наличие озвучки


Трекер:  [ 12-Сен-2017 09:01 ]

  

Скачать .torrent

Размер .torrent файла 21 KB


Размер: 3.73 GB
Хэш (hash) релиза: 438884fe8c0b62282fd6b0216ffff7d7fae82d97
Подписка на обновления:

Еще никто не оставлял запись к записи скачать торрент Библиотека Души Kokoro Library . Будь первым!

!Обратная связь