Скачать через торрент Раскосяченные Disjointed Фильм бесплатно в хорошем качестве torrent

Скачивайте на UnionPeer.org фильмы через торрент без регистрации. Новинки кино в хорошем качестве через торрент. На UnionPeer.org можно скачать через торрент фильмы 2014 и 2015 годов. Самые новые фильмы.

Скачать торрент Раскосяченные Disjointed бесплатно через .torrent фильм мультфильм сериал

Если у вас наблюдаются проблемы со скриншотами, переходом по ссылками, скачиванием торрентов - проблемы в блокировщике рекламы AdBlock. #хорошегоДня!


Статистика раздачи
Размер:  3.28 GB   |    Зарегистрирован:  2 месяца 9 дней   |    .torrent скачан:  6 раз   |   
Раздают:  1  
   
Загрузка...
 
Автор Сообщение

Galfimbul

avatar Galfimbul


Раскосяченные | Disjointed<var class="postImg postImgAligned img-right" title="https://i91.fastpic.ru/big/2017/0905/09/8c84384bcb7...09.png">
</var>Год выпуска: 2017
Страна: США, Chuck Lorre Productions, Warner Bros. Television
Жанр: Комедия
Продолжительность: ~ 00:28:00Перевод: Профессиональный (многоголосый закадровый) | JaskierРежиссёр: Ричи Кин, Джеймс Берроуз, Гай ДистадВ ролях: Аарон Мотен, Тони Белл, Дуги Болдуин, Элизабет Альдерфер, Кэти Бэйтс, Элизабет Хо, Бетси Содаро, Крис Редд, Николь Салливан, Майкл ТруккоОписание: Рут — сторонница легализации травки, достижению которой она посвятила практически всю свою жизнь, и её мечта в итоге сбывается, когда женщина становится владелицей точки по продаже лечебной марихуаны в Лос-Анджелесе. Компанию ей составят пару продавцов «лекарств», двадцатилетний сын героини и глубоко замороченный охранник.[img:AMT7bJkkMH]
Warning: imagecolorsforindex(): Color index 49 out of range in /home/youpic/public_html/includes/functions.php on line 580

Warning: imagecolorsforindex(): Color index 49 out of range in /home/youpic/public_html/includes/functions.php on line 580
http://s010.youpic.su/pictures/1505167200/25cf6a3aa140a231d39559e2d8db6b1f.gif[/img:AMT7bJkkMH]
| |Качество: WEBRip
Формат: AVI
Видео: XviD, ~ 1400 kbps, 720x400 (16:9), 23.976 fps
Аудио 1: MP3, 48,0 КГц, 2 ch, 128 kbps - Rus
Аудио 2: MP3, 48,0 КГц, 2 ch, 128 kbps - Eng
Субтитры: отсутствуютРеклама: Присутствует звуковая (два раза в начале и конце по 10 сек.)
Переведено и озвучено: студией Jaskier
Общее
Формат                                   : AVI
Формат/Информация                        : Audio Video Interleave
Размер файла                             : 350 Мбайт
Продолжительность                        : 27 м. 36 с.
Общий поток                              : 1775 Кбит/сек
Программа кодирования                    : VirtualDubMod 1.5.10.3 | www.virtualdub-fr.org || (build 2550/release)
Библиотека кодирования                   : VirtualDubMod build 2550/release

Видео
Идентификатор                            : 0
Формат                                   : MPEG-4 Visual
Профиль формата                          : Advanced Simple@L5
Параметр BVOP формата                    : 1
Параметр QPel формата                    : Нет
Параметр GMC формата                     : Без точки перехода
Параметр матрицы формата                 : Default (MPEG)
Идентификатор кодека                     : XVID
Идентификатор кодека/Подсказка           : XviD
Продолжительность                        : 27 м. 36 с.
Битрейт                                  : 1505 Кбит/сек
Ширина                                   : 720 пикселей
Высота                                   : 400 пикселей
Соотношение сторон                       : 16:9
Частота кадров                           : 23,976 (24000/1001) кадра/сек
Цветовое пространство                    : YUV
Субдискретизация насыщенности            : 4:2:0
Битовая глубина                          : 8 бит
Тип развёртки                            : Прогрессивная
Метод сжатия                             : С потерями
Бит/(Пиксели*Кадры)                      : 0.218
Размер потока                            : 297 Мбайт (85%)
Библиотека кодирования                   : XviD 73

Аудио #1
Идентификатор                            : 1
Формат                                   : MPEG Audio
Версия формата                           : Version 1
Профиль формата                          : Layer 3
Режим                                    : Joint stereo
Расширение режима                        : MS Stereo
Идентификатор кодека                     : 55
Идентификатор кодека/Подсказка           : MP3
Продолжительность                        : 27 м. 36 с.
Вид битрейта                             : Постоянный
Битрейт                                  : 128 Кбит/сек
Каналы                                   : 2 канала
Частота                                  : 48,0 КГц
Метод сжатия                             : С потерями
Размер потока                            : 25,3 Мбайт (7%)
Выравнивание                             : Соединение по промежуткам
Продолжительность промежутка             : 42  мс. (1,00 видеокадр)
Время предзагрузки промежутка            : 504  мс.

Аудио #2
Идентификатор                            : 2
Формат                                   : MPEG Audio
Версия формата                           : Version 1
Профиль формата                          : Layer 3
Режим                                    : Joint stereo
Расширение режима                        : MS Stereo
Идентификатор кодека                     : 55
Идентификатор кодека/Подсказка           : MP3
Продолжительность                        : 27 м. 36 с.
Вид битрейта                             : Постоянный
Битрейт                                  : 128 Кбит/сек
Каналы                                   : 2 канала
Частота                                  : 48,0 КГц
Метод сжатия                             : С потерями
Размер потока                            : 25,3 Мбайт (7%)
Выравнивание                             : Соединение по промежуткам
Продолжительность промежутка             : 42  мс. (1,00 видеокадр)
Время предзагрузки промежутка            : 504  мс.
Когда раздача ведётся путём добавления новых серий, при каждом добавлении создётся новый торрент. Чтобы начать докачку новой серии, пользователям необходимо сделать следующее:
(1) остановить скачивание,
(2) удалить старый торрент у себя из клиента (старые серии удалять не надо),
(3) скачать новый торрент и запустить его у себя в клиенте вместо старого, при этом указать клиенту путь в старую папку, куда и должно происходить скачивание новых серий.
Ваш клиент при этом должен произвести хеширование (проверку) старой папки (если не производит сам - помогите ему сделать это), и будет докачивать только те серии, которых у вас ещё нет. Старые серии при этом не удаляются, а продолжают раздаваться!
Eсли вы уже удалили старые серии, то предотвратить повторную закачку старых серий можно, отжав галочку в соответсвующих местах при запуске нового торрента. По возможности, желательно не удалять старые серии как можно дольше, чтобы релизёр не столько продолжал раздавать старые серии, а смог сконцентрироваться на новых.


Трекер:  [ 12-Сен-2017 02:18 ]

  

Скачать .torrent

Размер .torrent файла 17 KB


Размер: 3.28 GB
Хэш (hash) релиза: 4f7f0b52ce800d7252e66ad3749bf6f303e743ab
Подписка на обновления:

Торренты, похожие на Раскосяченные Disjointed скачать торрент

Форум Название Автор Размер S L Добавлен
Зарубежные сериалы ·· Раскосяченные / Disjointed / Сезон: 1 / Серии: 1-10 из 20 (Ричи Кин, Rhiannon O'Harra, Джеймс Берроуз) [2017, США, Комедия, WEBRip] MVO (AMS) + Original Galfimbul 57081413465.32 GB 0 0 1506945533

14:58

2-Окт-17

Зарубежные сериалы ·· Раскосяченные / Disjointed / Сезон: 1 / Серии: 1-10 из 20 (Ричи Кин, Rhiannon O'Harra, Джеймс Берроуз) [2017, США, Комедия, WEBRip 720p] MVO (AMS) + Original Galfimbul 83960532907.82 GB 0 0 1506945290

14:54

2-Окт-17

Зарубежные сериалы ·· Раскосяченные / Disjointed / Сезон: 1 / Серии: 1-10 из 20 (Ричи Кин, Джеймс Берроуз, Гай Дистад) [2017, США, Комедия, WEBRip 720p] MVO (Good People) + Original Galfimbul 80099453357.46 GB 0 0 1505728476

12:54

18-Сен-17

Зарубежные сериалы ·· Раскосяченные / Disjointed / Сезон: 1 / Серии: 1-2 из 10 (Ричи Кин, Джеймс Берроуз, Гай Дистад[) [2017, США, Комедия, WEBRip 720p] MVO (Jaskier) + Original Galfimbul 16736373081.56 GB 0 0 1504621482

17:24

5-Сен-17

Зарубежные сериалы ·· Раскосяченные / Disjointed / Сезон: 1 / Серии: 1-2 из 10 (Ричи Кин, Джеймс Берроуз, Гай Дистад[) [2017, США, Комедия, WEBRip 1080p] MVO (Jaskier) + Original Galfimbul 28864668912.69 GB 2 0 1504621473

17:24

5-Сен-17

Еще никто не оставлял запись к записи скачать торрент Раскосяченные Disjointed . Будь первым!

!Обратная связь