Скачать через торрент По долгу службы Line of Duty Фильм бесплатно в хорошем качестве torrent

Скачивайте на UnionPeer.org фильмы через торрент без регистрации. Новинки кино в хорошем качестве через торрент. На UnionPeer.org можно скачать через торрент фильмы 2014 и 2015 годов. Самые новые фильмы.

Скачать торрент По долгу службы Line of Duty бесплатно через .torrent фильм мультфильм сериал

Если у вас наблюдаются проблемы со скриншотами, переходом по ссылками, скачиванием торрентов - проблемы в блокировщике рекламы AdBlock. #хорошегоДня!


Статистика раздачи
Размер:  13.34 GB   |    Зарегистрирован:  2 месяца 9 дней   |    .torrent скачан:  12 раз   |   
Раздают:  1  
   
Загрузка...
 
Автор Сообщение

Galfimbul

avatar Galfimbul


По долгу службы | Line of Duty
Год выпуска: 2014 (2 сезон)
Страна: Великобритания
Жанр: Триллер, драма, криминал
Продолжительность: ~ 00:59:00
Перевод: Профессиональный (многоголосый закадровый) (Sony Turbo)
Субтитры: Английские Режиссёр: Дуглас Маккиннон/Douglas Mackinnon, Дэниэл Неттхейм/Daniel Nettheim В ролях: Кили Хоуз (Детектив-инспектор Линдсей Дентон), Мартин Компстон (Детектив-сержант Стив Арнотт), Вики МакКлюр (Детектив-констебль Кейт Флеминг), Эдриан Данбар (Суперинтендант Тед Гастингс), Крэйг Паркинсон (Детектив-сержант Коттан), Марк Боннар (Заместитель начальника полиции Майкл Драйдон), Ниал МакГрегор (Ричард Эйкерс), Майкл Нардон (О’Нилл), Нил Мориссей (Детектив-констебль Найджел Мортон), Тони Питтс (Главный суперинтендант Лес Харгривз), Джессика Рэйн (Детектив-констебль Джорджия Тротман), Стив Туссэн (Старший суперинтендант Малик), Эллисон МакКензи (Сержант Джейн Эйкерс), Генри Петтигрю (Констебль Джереми Коул), Саша Дхаван (Сержант Маниш Прасад), Саймон Миллар (Детектив-констебль Дэниел Брайтвей), Шарлотта Спенсер (Карли Кирк) и др.Описание: Британский сериал рассказывает о трудовых буднях БК-12 - подразделения британской полиции по борьбе с коррупцией. Во втором сезоне под подозрение попадает детектив Линдсей Дентон. Именно она отвечала за безопасность важного свидетеля, которого нужно было доставить на конспиративную квартиру. По непонятным причинам конвоиры не имели ни оружия, ни подкрепления, в результате чего двое полицейских и агент защиты свидетелей убиты, а сам свидетель на грани жизни и смерти. Не пострадала лишь детектив Дентон. Теперь все подозрения падают на нее, но вот только какие – либо улик, свидетельствующих о том, что она каким – то образом причастна к нападению, просто нет. Стиву Арнотту и его напарнице Кейт Флеминг предстоит разобраться в этом запутанном деле...
<div class="sp-wrap">
<div class="sp-head folded">Доп. информация</div>
<div class="sp-body">Источником русской аудиодорожки является релиз Ser_GV

</div>
</div>
[b]Качество:
BDRip 1080р
Формат: MKV
Видео кодек: H.264
Аудио кодек: AC3
Видео: MPEG-4 AVC, 1920x1080 (16:9), 25.000 fps, ~5000 kbps, 0.099 bpp
Аудио 1: [Русский] AC3, 48 kHz, 2 ch, 192 kbps
Аудио 2: [Английский] AC3, 48 kHz, 6 ch, 384 kbps
Субтитры: Английские (SRT)
Реклама: Отсутствует
General
Unique ID                   : 183292390974555977477463508083914867712 (0x89E4D4976DD24132BB2E80A745388400)
Complete name               : E:\...\Line.of Duty.S02.1080p.BDRip\Line.of Duty.S02E01.1080p.BDRip.Rus.Eng.mkv
Format                      : Matroska
Format version              : Version 4 / Version 2
File size                   : 2.36 GiB
Duration                    : 59 min 7 s
Overall bit rate            : 5 726 kb/s
Encoded date                : UTC 2017-09-10 01:47:56
Writing application         : mkvmerge v7.3.0 ('Nouages') 64bit built on Oct 22 2014 18:53:34
Writing library             : libebml v1.3.0 + libmatroska v1.4.1

Video
ID                          : 1
Format                      : AVC
Format/Info                 : Advanced Video Codec
Format profile              : High@L4.1
Format settings, CABAC      : Yes
Format settings, RefFrames  : 4 frames
Codec ID                    : V_MPEG4/ISO/AVC
Duration                    : 59 min 7 s
Bit rate                    : 5 149 kb/s
Width                       : 1 920 pixels
Height                      : 1 080 pixels
Display aspect ratio        : 16:9
Frame rate mode             : Constant
Frame rate                  : 25.000 FPS
Color space                 : YUV
Chroma subsampling          : 4:2:0
Bit depth                   : 8 bits
Scan type                   : Progressive
Bits/(Pixel*Frame)          : 0.099
Stream size                 : 2.13 GiB (90%)
Writing library             : x264 core 148 r2597 e86f3a1
Encoding settings           : cabac=1 / ref=4 / deblock=1:-3:-3 / analyse=0x3:0x133 / me=umh / subme=8 / psy=1 / psy_rd=1.00:0.15 / mixed_ref=1 / me_range=16 / chroma_me=1 / trellis=1 / 8x8dct=1 / cqm=0 / deadzone=21,11 / fast_pskip=0 / chroma_qp_offset=-3 / threads=18 / lookahead_threads=3 / sliced_threads=0 / nr=0 / decimate=1 / interlaced=0 / bluray_compat=0 / constrained_intra=0 / bframes=3 / b_pyramid=2 / b_adapt=2 / b_bias=0 / direct=3 / weightb=1 / open_gop=0 / weightp=2 / keyint=250 / keyint_min=25 / scenecut=40 / intra_refresh=0 / rc_lookahead=50 / rc=crf / mbtree=1 / crf=20.0 / qcomp=0.60 / qpmin=0 / qpmax=69 / qpstep=4 / ip_ratio=1.40 / aq=1:1.00
Default                     : Yes
Forced                      : No

Audio #1
ID                          : 2
Format                      : AC-3
Format/Info                 : Audio Coding 3
Format settings, Endianness : Big
Codec ID                    : A_AC3
Duration                    : 59 min 7 s
Bit rate mode               : Constant
Bit rate                    : 192 kb/s
Channel(s)                  : 2 channels
Channel positions           : Front: L R
Sampling rate               : 48.0 kHz
Frame rate                  : 31.250 FPS (1536 SPF)
Bit depth                   : 16 bits
Compression mode            : Lossy
Stream size                 : 81.2 MiB (3%)
Title                       : Sony Turbo
Language                    : Russian
Service kind                : Complete Main
Default                     : Yes
Forced                      : No

Audio #2
ID                          : 3
Format                      : AC-3
Format/Info                 : Audio Coding 3
Format settings, Endianness : Big
Codec ID                    : A_AC3
Duration                    : 59 min 0 s
Bit rate mode               : Constant
Bit rate                    : 384 kb/s
Channel(s)                  : 6 channels
Channel positions           : Front: L C R, Side: L R, LFE
Sampling rate               : 48.0 kHz
Frame rate                  : 31.250 FPS (1536 SPF)
Bit depth                   : 16 bits
Compression mode            : Lossy
Stream size                 : 162 MiB (7%)
Language                    : English
Service kind                : Complete Main
Default                     : No
Forced                      : No

Text
ID                          : 4
Format                      : UTF-8
Codec ID                    : S_TEXT/UTF8
Codec ID/Info               : UTF-8 Plain Text
Duration                    : 57 min 6 s
Bit rate                    : 56 b/s
Count of elements           : 669
Stream size                 : 23.7 KiB (0%)
Language                    : English
Default                     : No
Forced                      : No

Menu
00:00:00.000                : en:00:00:00.000
00:03:11.760                : en:00:03:11.760
00:29:16.800                : en:00:29:16.800


Трекер:  [ 12-Сен-2017 01:24 ]

  

Скачать .torrent

Размер .torrent файла 67 KB


Размер: 13.34 GB
Хэш (hash) релиза: d85cd2d20855bf836e3e682c62e17056b9efd5a2
Подписка на обновления:

Еще никто не оставлял запись к записи скачать торрент По долгу службы Line of Duty . Будь первым!

!Обратная связь