Скачать через торрент BBC: Доминик Монаган и дикие существа Wild Things with Dominic Monaghan Фильм бесплатно в хорошем качестве torrent

Скачивайте на UnionPeer.org фильмы через торрент без регистрации. Новинки кино в хорошем качестве через торрент. На UnionPeer.org можно скачать через торрент фильмы 2014 и 2015 годов. Самые новые фильмы.

Скачать торрент BBC: Доминик Монаган и дикие существа Wild Things with Dominic Monaghan бесплатно через .torrent фильм мультфильм сериал

Если у вас наблюдаются проблемы со скриншотами, переходом по ссылками, скачиванием торрентов - проблемы в блокировщике рекламы AdBlock. #хорошегоДня!


Статистика раздачи
Размер:  32.54 GB   |    Зарегистрирован:  7 дней   |    .torrent скачан:  4 раза   |   
Раздают:  1  
   
Загрузка...
 
Автор Сообщение

Galfimbul

avatar Galfimbul


Доминик Монаган и дикие существаWild Things with Dominic Monaghan

Год выпуска: 2015
Страна: Великобритания, Канада
Производство: BBC America, A Cream and Wildfire TV Productions
Режиссёры: Роб Брюнер (Rob Brunner), Виктор Кушманюк (Victor Kushmaniuk), Frank Vilaca (Фрэнк Вилака)
Жанр: Документальный, познавательный, природа
Продолжительность: 13 x ~00:42:30
В главной роли: Доминик Монаган (Dominic Monaghan)Перевод: Профессиональный (одноголосый, закадровый) [Студия SDI Media (Владислав Букин)]
Русские субтитры: нетОписание: Доминик Монаган, известный зрителям по трилогии "Властелин Колец" и сериалу "Лост", с самого раннего детства восхищался дикими животными. Он мечтал путешествовать по миру, чтобы найти и взять в руки самых редких и опасных животных на Земле. Теперь у Доминика есть такая возможность и он отправляется на поиски самых уникальных и ядовитых представителей животного мира.Номинации и награды: Outstanding Unstructured Reality Program at the 66th Primetime Creative Arts Emmy Awards
Источник: HDTV-запись с телеканала Viasat Nature HD от san007Тип релиза: HDTV 720p
Контейнер: MKVВидео: AVC H.264, 1280x720p (16:9), 50p fps, ~8000 kbps, ~0.17,5 bits/pixel
Аудио 1: Russian, MP2, 48KHz, 2 channels, 128 kbps
Аудио 2: English, MP2, 48KHz, 2 channels, 128 kbpsРаздача в HDTV 1080i (2-й сезон)
Раздача в HDTVRip 720p (2-й и 3-й сезон)
S03E01 Fer-de-Lance, (Belize) / Фер-де-ланс (Белиз)
S03E02 Sharks (Florida, USA) / Акулы (Флорида, США)
S03E03 Aye Aye (Madagascar) / Руконожка ай-ай (Мадагаскар)
S03E04 Whale Shark (Mozambique) / Китовая акула (Мозамбик)
S03E05 White Lion (South Africa) / Белый лев (Южная Африка)
S03E06 Indian Cobra (Sri Lanka) / Индийская кобра (Шри-Ланка)
S03E07 Flying Lizard (Philippines) / Летучий дракон (Филиппины)
S03E08 Electric Eel (Peruvian Amazon) / Электрический угорь (Перуанская Амазония)
S03E09 Lake Titicaca Water Frog (Peru) / Титикакский свистун (Перу)
S03E10 Giant Anteater (Brazil) / Гигантский муравьед (Бразилия)
S03E11 Andean Bear (Bolivia) / Очковый медведь (Боливия)
S03E12 Coconut Crab (Palau) / Кокосовый краб (Палау)
S03E13 Sumatran Orangutan (Indonesia) / Суматранский орангутан (Индонезия)
General
Format : Matroska
Format version : Version 4 / Version 2
File size : 2.55 GiB
Duration : 42 min 16 s
Overall bit rate : 8 637 kb/s
Encoded date : UTC 2017-08-05 17:25:35
Writing application : mkvmerge v7.7.0 ('Six Voices') 64bit
Writing library : libebml v1.3.1 + libmatroska v1.4.2

Video
ID : 1
Format : AVC
Format/Info : Advanced Video Codec
Format profile : High@L4
Format settings, CABAC : Yes
Format settings, ReFrames : 5 frames
Codec ID : V_MPEG4/ISO/AVC
Duration : 42 min 16 s
Bit rate : 8 210 kb/s
Width : 1 280 pixels
Height : 720 pixels
Display aspect ratio : 16:9
Frame rate mode : Constant
Frame rate : 50.000 FPS
Standard : Component
Color space : YUV
Chroma subsampling : 4:2:0
Bit depth : 8 bits
Scan type : Progressive
Bits/(Pixel*Frame) : 0.178
Stream size : 2.42 GiB (95%)
Default : Yes
Forced : No
Color range : Limited
Color primaries : BT.709
Transfer characteristics : BT.709
Matrix coefficients : BT.709

Audio #1
ID : 2
Format : MPEG Audio
Format version : Version 1
Format profile : Layer 2
Codec ID : A_MPEG/L2
Codec ID/Hint : MP2
Duration : 42 min 16 s
Bit rate mode : Constant
Bit rate : 128 kb/s
Channel(s) : 2 channels
Sampling rate : 48.0 kHz
Compression mode : Lossy
Stream size : 38.7 MiB (1%)
Title : Russian
Language : Russian
Default : Yes
Forced : No

Audio #2
ID : 3
Format : MPEG Audio
Format version : Version 1
Format profile : Layer 2
Codec ID : A_MPEG/L2
Codec ID/Hint : MP2
Duration : 42 min 16 s
Bit rate mode : Constant
Bit rate : 128 kb/s
Channel(s) : 2 channels
Sampling rate : 48.0 kHz
Compression mode : Lossy
Stream size : 38.7 MiB (1%)
Title : English
Language : English
Default : No
Forced : No


Трекер:  [ 12-Сен-2017 01:12 ]

  

Скачать .torrent

Размер .torrent файла 83 KB


Размер: 32.54 GB
Хэш (hash) релиза: e1351f580b7c11dc527e156307d27a8d0e8f60d5
Подписка на обновления:

Еще никто не оставлял запись к записи скачать торрент BBC: Доминик Монаган и дикие существа Wild Things with Dominic Monaghan . Будь первым!

!Обратная связь