Line of Duty torrent

UnionPeer.org . . UnionPeer.org 2014 2015 . .

Line of Duty .torrent

, , - AdBlock. #!


13.93 GB   |    :  10    |    .torrent :  11    |   
1  
   
...
 

Galfimbul

avatar Galfimbul


| Line of Duty
: 2012 (1 )
:
: , ,
: ~ 00:58:00
: ( ) (Sony Turbo)
: (vipere), : /David Caffrey, /Douglas Mackinnon : ( - ), (- ), (- ), ( ), (- ), ( ), (- ), ( ), ( ), (- ), ( - ), ( ), (- ), ( ), ( ), Β (), () .: -12 - . , . , - . , , , , , ...
<div class="sp-wrap">
<div class="sp-head folded">. </div>
<div class="sp-body"> Ser_GV
: vipere, frazer, SemperFi, khralexey, ale_61

</div>
</div>
[b]:
BDRip 1080
: MKV
: H.264
: AC3
: MPEG-4 AVC, 1920x1080 (16:9), 25.000 fps, ~6200 kbps, 0.117 bpp
1: [] AC3, 48 kHz, 2 ch, 192 kbps
2: [] AC3, 48 kHz, 6 ch, 384 kbps
: , (SRT)
:
General
Unique ID : 209897003613721493572139011695770750998 (0x9DE8B14461E33561AAB79CD1109A5016)
Complete name : E:\...\Line.of Duty.S01.1080p.BDRip\Line.of Duty.S01E01.1080p.BDRip.Rus.Eng.mkv
Format : Matroska
Format version : Version 4 / Version 2
File size : 2.73 GiB
Duration : 58 min 47 s
Overall bit rate : 6 655 kb/s
Encoded date : UTC 2017-09-09 19:58:16
Writing application : mkvmerge v7.3.0 ('Nouages') 64bit built on Oct 22 2014 18:53:34
Writing library : libebml v1.3.0 + libmatroska v1.4.1

Video
ID : 1
Format : AVC
Format/Info : Advanced Video Codec
Format profile : High@L4.1
Format settings, CABAC : Yes
Format settings, RefFrames : 4 frames
Codec ID : V_MPEG4/ISO/AVC
Duration : 58 min 47 s
Bit rate : 6 076 kb/s
Width : 1 920 pixels
Height : 1 080 pixels
Display aspect ratio : 16:9
Frame rate mode : Constant
Frame rate : 25.000 FPS
Color space : YUV
Chroma subsampling : 4:2:0
Bit depth : 8 bits
Scan type : Progressive
Bits/(Pixel*Frame) : 0.117
Stream size : 2.50 GiB (91%)
Writing library : x264 core 146 r2538 121396c
Encoding settings : cabac=1 / ref=4 / deblock=1:-3:-3 / analyse=0x3:0x133 / me=umh / subme=7 / psy=1 / psy_rd=1.00:0.15 / mixed_ref=1 / me_range=16 / chroma_me=1 / trellis=1 / 8x8dct=1 / cqm=0 / deadzone=21,11 / fast_pskip=0 / chroma_qp_offset=-3 / threads=12 / lookahead_threads=2 / sliced_threads=0 / nr=0 / decimate=1 / interlaced=0 / bluray_compat=0 / constrained_intra=0 / bframes=3 / b_pyramid=2 / b_adapt=1 / b_bias=0 / direct=3 / weightb=1 / open_gop=0 / weightp=2 / keyint=250 / keyint_min=25 / scenecut=40 / intra_refresh=0 / rc_lookahead=40 / rc=crf / mbtree=1 / crf=20.0 / qcomp=0.60 / qpmin=0 / qpmax=69 / qpstep=4 / ip_ratio=1.40 / aq=1:1.00
Default : Yes
Forced : No

Audio #1
ID : 2
Format : AC-3
Format/Info : Audio Coding 3
Format settings, Endianness : Big
Codec ID : A_AC3
Duration : 58 min 47 s
Bit rate mode : Constant
Bit rate : 192 kb/s
Channel(s) : 2 channels
Channel positions : Front: L R
Sampling rate : 48.0 kHz
Frame rate : 31.250 FPS (1536 SPF)
Bit depth : 16 bits
Compression mode : Lossy
Stream size : 80.7 MiB (3%)
Title : Sony Turbo
Language : Russian
Service kind : Complete Main
Default : Yes
Forced : No

Audio #2
ID : 3
Format : AC-3
Format/Info : Audio Coding 3
Format settings, Endianness : Big
Codec ID : A_AC3
Duration : 58 min 47 s
Bit rate mode : Constant
Bit rate : 384 kb/s
Channel(s) : 6 channels
Channel positions : Front: L C R, Side: L R, LFE
Sampling rate : 48.0 kHz
Frame rate : 31.250 FPS (1536 SPF)
Bit depth : 16 bits
Compression mode : Lossy
Stream size : 161 MiB (6%)
Language : English
Service kind : Complete Main
Default : No
Forced : No

Text #1
ID : 4
Format : UTF-8
Codec ID : S_TEXT/UTF8
Codec ID/Info : UTF-8 Plain Text
Duration : 56 min 10 s
Bit rate : 118 b/s
Count of elements : 713
Stream size : 48.9 KiB (0%)
Title : vipere
Language : Russian
Default : No
Forced : No

Text #2
ID : 5
Format : UTF-8
Codec ID : S_TEXT/UTF8
Codec ID/Info : UTF-8 Plain Text
Duration : 56 min 10 s
Bit rate : 63 b/s
Count of elements : 975
Stream size : 26.2 KiB (0%)
Language : English
Default : No
Forced : No

Menu
00:00:00.000 : en:00:00:00.000
00:12:10.280 : en:00:12:10.280
00:20:28.160 : en:00:20:28.160
00:30:59.320 : en:00:30:59.320
00:41:36.800 : en:00:41:36.800
00:51:06.120 : en:00:51:06.120
00:58:07.080 : en:00:58:07.080


 ·  , , FAQ-
:  [ 11--2017 22:54 ]

  

.torrent

.torrent 70 KB


: 13.93 GB
(hash) : 65328f94202a4ce0d4d590f3c90c38378630fdfc
:
··
...

Line of Duty . !

!