Скачать через торрент Бэтмен и Харли Квинн Batman and Harley Quinn Фильм бесплатно в хорошем качестве torrent

Скачивайте на UnionPeer.org фильмы через торрент без регистрации. Новинки кино в хорошем качестве через торрент. На UnionPeer.org можно скачать через торрент фильмы 2014 и 2015 годов. Самые новые фильмы.

Скачать торрент Бэтмен и Харли Квинн Batman and Harley Quinn бесплатно через .torrent фильм мультфильм сериал

Если у вас наблюдаются проблемы со скриншотами, переходом по ссылками, скачиванием торрентов - проблемы в блокировщике рекламы AdBlock. #хорошегоДня!


Статистика раздачи
Размер:  4.71 GB   |    Зарегистрирован:  13 дней   |    .torrent скачан:  4 раза   |   
Раздают:  1  
   
Загрузка...
 
Автор Сообщение

Galfimbul

avatar Galfimbul


Бэтмен и Харли Квинн / Batman and Harley Quinn
Страна: США
Жанр: фантастика, фэнтези, боевик, комедия, приключения
Продолжительность: 01:16:00
Год выпуска: 2017
Перевод: Любительский (многоголосый закадровый) [GoASound]
Русские субтитры: естьРежиссёр: Сэм Лью / Sam LiuОписание: В фильме рассказывается история о странных взаимоотношениях между Бэтменом и бывшей подружкой Джокера Харли Квинна. Злодейка влюбляется в Бэтмена, но свою любовь девушка проявляет странным образом. В то время как супер-герой помогает людям, спасая их жизни, Харли всячески ему мешает, постоянно создавая трудности. Бэтмен постоянно злится и отвечает резкими нападками против злодейки, но ничего не может поделать. В конце концов, Харли удается схватить и отправить на лечение в психбольницу для особо тяжелых клиентов, заодно немного успокоится.
Вскоре Харли вырывается на свободу совсем иным человеком. Девушка становится на сторону добра и выявляет желание помогать Бэтмену, которому сейчас просто необходима помощь, так как предстоит остановить надвигающуюся катастрофу, которую создали Доктор Джейсон Вудроу и Ядовитый Плющ. Угроза состоит в превращении людей в растения. Этого нельзя допустить, поэтому герои сплотятся, и будут бороться против заклятых врагов, чтобы освободить человечество от смертельной опасности.Семпл: http://sendfile.su/1361195Качество: BDRip 1080p
Формат: MKV
Видео: x264, 1920x1080, 23.97 fps, ~2700 kbps,
Аудио (рус.): AC3 5.1, 48.0 Hz, 640 kbps
Аудио 2 (рус.): DTS 5.1, 48.0 Hz, 1500 kbps
Субтитры: русские (песни), русские, английские, отключаемые
ОбщееУникальный идентификатор : 231177971387157604068277644066438863387 (0xADEB41FC68FB54F585D555099F255A1B)Полное имя : D:\Batman.and.Harley.Quinn.BDRip.1080p.[GoASound].mkvФормат : MatroskaВерсия формата : Version 4 / Version 2Размер файла : 4,71 ГбайтПродолжительность : 1 ч. 14 м.Общий поток : 9080 Кбит/секДата кодирования : UTC 2017-09-11 17:46:22Программа кодирования : mkvmerge v7.3.0 ('Nouages') 32bit built on Oct 22 2014 18:44:01Библиотека кодирования : libebml v1.3.0 + libmatroska v1.4.1

ВидеоИдентификатор : 1Формат : AVCФормат/Информация : Advanced Video CodecПрофиль формата : High@L4.1Параметр CABAC формата : ДаПараметр RefFrames формата : 4 кадраИдентификатор кодека : V_MPEG4/ISO/AVCПродолжительность : 1 ч. 14 м.Битрейт : 6342 Кбит/секШирина : 1920 пикселейВысота : 1080 пикселейСоотношение сторон : 16:9Режим частоты кадров : ПостоянныйЧастота кадров : 23,976 (24000/1001) кадра/секЦветовое пространство : YUVСубдискретизация насыщенности : 4:2:0Битовая глубина : 8 битТип развёртки : ПрогрессивнаяБит/(Пиксели*Кадры) : 0.128Размер потока : 3,29 Гбайт (70%)Библиотека кодирования : x264 core 148 r2597 e86f3a1Настройки программы : cabac=1 / ref=4 / deblock=1:0:0 / analyse=0x3:0x113 / me=umh / subme=10 / psy=1 / psy_rd=1.05:0.10 / mixed_ref=1 / me_range=48 / chroma_me=1 / trellis=2 / 8x8dct=1 / cqm=0 / deadzone=21,11 / fast_pskip=0 / chroma_qp_offset=-2 / threads=12 / lookahead_threads=1 / sliced_threads=0 / nr=0 / decimate=1 / interlaced=0 / bluray_compat=0 / constrained_intra=0 / bframes=6 / b_pyramid=2 / b_adapt=2 / b_bias=0 / direct=3 / weightb=1 / open_gop=0 / weightp=2 / keyint=250 / keyint_min=23 / scenecut=40 / intra_refresh=0 / rc=2pass / mbtree=0 / bitrate=6342 / ratetol=2.0 / qcomp=0.70 / qpmin=0 / qpmax=69 / qpstep=4 / cplxblur=20.0 / qblur=0.5 / ip_ratio=1.40 / pb_ratio=1.30 / aq=2:1.00Default : ДаForced : Нет

Аудио #1Идентификатор : 2Формат : AC-3Формат/Информация : Audio Coding 3Параметр Endianness формата : BigИдентификатор кодека : A_AC3Продолжительность : 1 ч. 14 м.Вид битрейта : ПостоянныйБитрейт : 640 Кбит/секКаналы : 6 каналовРасположение каналов : Front: L C R, Side: L R, LFEЧастота : 48,0 КГцЧастота кадров : 31,250 кадров/сек (1536 SPF)Битовая глубина : 16 битМетод сжатия : С потерямиРазмер потока : 340 Мбайт (7%)Язык : RussianServiceKind/String : Complete MainDefault : ДаForced : Нет

Аудио #2Идентификатор : 3Формат : DTSФормат/Информация : Digital Theater SystemsПрофиль формата : MA / CoreРежим : 16Параметр Endianness формата : BigИдентификатор кодека : A_DTSПродолжительность : 1 ч. 14 м.Вид битрейта : Переменный / ПостоянныйБитрейт : 2093 Кбит/сек / 1509 Кбит/секКаналы : 6 каналовРасположение каналов : Front: L C R, Side: L R, LFEЧастота : 48,0 КГцЧастота кадров : 93,750 кадра/сек (512 SPF)Битовая глубина : 24 битМетод сжатия : Без потерь / LossyРазмер потока : 1,09 Гбайт (23%)Язык : EnglishDefault : НетForced : Нет

Текст #1Идентификатор : 4Формат : ASSИдентификатор кодека : S_TEXT/ASSИдентификатор кодека/Информация : Advanced Sub Station AlphaПродолжительность : 4 м. 37 с.Битрейт : 163 бит/секElementCount : 60Метод сжатия : Без потерьРазмер потока : 5,52 Кбайт (0%)Заголовок : ПесниЯзык : RussianDefault : ДаForced : Нет

Текст #2Идентификатор : 5Формат : ASSИдентификатор кодека : S_TEXT/ASSИдентификатор кодека/Информация : Advanced Sub Station AlphaПродолжительность : 1 ч. 13 м.Битрейт : 137 бит/секElementCount : 990Метод сжатия : Без потерьРазмер потока : 74,4 Кбайт (0%)Язык : RussianDefault : НетForced : Нет

Текст #3Идентификатор : 6Формат : UTF-8Идентификатор кодека : S_TEXT/UTF8Идентификатор кодека/Информация : UTF-8 Plain TextПродолжительность : 1 ч. 13 м.Битрейт : 68 бит/секElementCount : 1143Размер потока : 37,2 Кбайт (0%)Язык : EnglishDefault : НетForced : Нет
Работа со звуком:
Bobropandavar
Озвучка:
Wolverrine - Найтвинг, и др.
Маргарита Корш - Харли Квинн, и др.
Сергей Павлов - Бэтмен, и др.
Reina - Ядовитый Плющ, и др.
Ланселап - Второстепенные роли


Трекер:  [ 11-Сен-2017 22:36 ]

  

Скачать .torrent

Размер .torrent файла 12 KB


Размер: 4.71 GB
Хэш (hash) релиза: 40a8a057bcde9017db79fa00a3acb2979633d2d1
Подписка на обновления:

Торренты, похожие на Бэтмен и Харли Квинн Batman and Harley Quinn скачать торрент

Форум Название Автор Размер S L Добавлен
Мультфильмы до 2016 ·· Бэтмен и Харли Квинн / Batman and Harley Quinn (Сэм Лью / Sam Liu) [2017, США, фантастика, фэнтези, боевик, комедия, приключения, Blu-ray disc] MVO(Saint-Sound TV) + Rus Sub(Песни) Galfimbul 48015854294.47 GB 0 0 1505419590

23:06

14-Сен-17

Мультфильмы до 2016 ·· Бэтмен и Харли Квинн / Batman and Harley Quinn (Сэм Лью / Sam Liu) [2017, США, фантастика, фэнтези, боевик, комедия, приключения, BDRip 720p] MVO (GoASound) + Rus, Eng Sub Galfimbul 27049871852.52 GB 1 1 1505156805

22:06

11-Сен-17

Мультфильмы до 2016 ·· Бэтмен и Харли Квинн / Batman and Harley Quinn (Сэм Лью) [2017, США, фантастика, фэнтези, боевик, комедия, приключения, WEB-DL 720p] MVO Galfimbul 25944175942.42 GB 0 0 1504940782

10:06

9-Сен-17

Мультфильмы до 2016 ·· Бэтмен и Харли Квинн / Batman and Harley Quinn (Сэм Лью) [2017, США, фантастика, фэнтези, боевик, комедия, приключения, WEB-DLRip] MVO Galfimbul 13864202241.29 GB 0 0 1503247000

19:36

20-Авг-17

Еще никто не оставлял запись к записи скачать торрент Бэтмен и Харли Квинн Batman and Harley Quinn . Будь первым!

!Обратная связь