- Wonder Woman torrent

, , - AdBlock. #!


4.77 GB   |    :  2 11    |    .torrent :  56    |   
1  
   
...
 

Galfimbul

avatar Galfimbul


- / Wonder Woman


6.877 / 10 8.00 / 10
: 2017
: , , , , ,
: , , , ,
: 02:21:15

: (iTunes)
:
C: , ,
:
: , . ,
: , ,
:
: -
: , ,
:
: , , , , , , , , ,

: $149 000 000
: $410 503 142
: + $405 800 000 = $816 303 142
: $8 176 049

: 15 2017
(): 1 2017, -

: -, , . , , , , , . , , . : Blu-Ray (BlueBird)
: BDRip
: HD (720p)
: M4V
: H.264, 1280x536, 2.40:1, 3 500 Kbps, 23.976 (24000/1001) fps

1: / (iTunes), AAC / 2.0 / 160 Kbps / 48.0 KHz
2: / , AAC / 2.0 / 160 Kbps / 48.0 KHz
3: / (iTunes), AC-3 / 5.1 / 384 Kbps / 48.0 KHz
4: / , AC-3 / 5.1 / 640 Kbps / 48.0 KHz

1:
2:
3:
Sort Name: Wonder Woman
XID: Apple:vendor_id:2017-102383
contentID: 1235765633
Copyright: 2017 Warner Bros. Entertainment Inc. and RatPac-Dune Entertainment LLC. WONDER WOMAN and all related characters and elements are trademarks of and copyright DC Comics.
Screenwriters: , . ,
Producers: , ,
Director:
Cast: , , , , , , , , ,
Studio: Warner Bros.
Rating Annotation: Rated PG-13 for sequences of violence and action, and some suggestive content.
Rating: 4
Long Description: -, - , . , , , , , . , , .
Description: , -.
Release Date: 2017-05-15T08:00:00Z
Genre: Action & Adventure
Artist: Patty Jenkins
Name: Wonder Woman (2017)
General
Complete name : /Users/imac/HandBrake/Wonder Woman (720p HD).m4v
Format : MPEG-4
Codec ID : M4V (M4V /M4A /mp42/isom)
File size : 4.77 GiB
Duration : 2h 21mn
Overall bit rate mode : Variable
Overall bit rate : 4 839 Kbps
Movie name : Wonder Woman (2017)
Performer : Patty Jenkins
Director :
Actor : / / / / / / / / /
Screenplay by : / . /
Producer : / /
Production studio : Warner Bros.
Genre : Action & Adventure
ContentType : Short Film
Description : , -.
Recorded date : UTC 2017-05-15 08:00:00
Encoded date : UTC 2017-09-11 17:01:14
Tagged date : UTC 2017-09-11 17:03:36
Copyright : 2017 Warner Bros. Entertainment Inc. and RatPac-Dune Entertainment LLC. WONDER WOMAN and all related characters and elements are trademarks of and copyright DC Comics.
Cover : Yes
Rating : None
Title/Sort : Wonder Woman
LongDescription : -, - , . , , , , , . , , .
HDVideo : Yes
AppleStoreCatalogID : 1235765633
Vendor : Apple:vendor_id:2017-102383
ContentRating : mpaa|PG-13|300|Rated PG-13 for sequences of violence and action, and some suggestive content.

Video #1
ID : 1
Format : AVC
Format/Info : Advanced Video Codec
Format profile : High@L3.1
Format settings, CABAC : No
Format settings, ReFrames : 3 frames
Codec ID : avc1
Codec ID/Info : Advanced Video Coding
Duration : 2h 21mn
Source duration : 2h 21mn
Bit rate : 3 500 Kbps
Width : 1 280 pixels
Height : 536 pixels
Display aspect ratio : 2.40:1
Frame rate mode : Variable
Frame rate : 23.976 (24000/1001) fps
Minimum frame rate : 23.974 fps
Maximum frame rate : 23.981 fps
Color space : YUV
Chroma subsampling : 4:2:0
Bit depth : 8 bits
Scan type : Progressive
Bits/(Pixel*Frame) : 0.213
Stream size : 3.44 GiB (72%)
Source stream size : 3.44 GiB (72%)
Title : Main Program
Writing library : x264 core 148 r2708 86b7198
Encoding settings : cabac=0 / ref=3 / deblock=1:-3:-3 / analyse=0x3:0x113 / me=umh / subme=9 / psy=1 / psy_rd=1.00:0.15 / mixed_ref=1 / me_range=32 / chroma_me=1 / trellis=0 / 8x8dct=1 / cqm=0 / deadzone=21,11 / fast_pskip=0 / chroma_qp_offset=-2 / threads=17 / lookahead_threads=1 / sliced_threads=0 / nr=0 / decimate=0 / interlaced=0 / bluray_compat=0 / constrained_intra=0 / bframes=3 / b_pyramid=0 / b_adapt=2 / b_bias=0 / direct=1 / weightb=0 / open_gop=0 / weightp=0 / keyint=240 / keyint_min=24 / scenecut=40 / intra_refresh=0 / rc_lookahead=40 / rc=2pass / mbtree=1 / bitrate=3500 / ratetol=1.0 / qcomp=0.65 / qpmin=0 / qpmax=69 / qpstep=4 / cplxblur=20.0 / qblur=0.5 / vbv_maxrate=9500 / vbv_bufsize=9500 / nal_hrd=none / filler=0 / ip_ratio=1.40 / aq=1:1.10
Language : English
Encoded date : UTC 2017-09-11 17:01:14
Tagged date : UTC 2017-09-11 17:01:26
Color range : Limited
Color primaries : BT.709
Transfer characteristics : BT.709
Matrix coefficients : BT.709
Menus : 9,10

Video #2
ID : 10
Format : JPEG
Codec ID : jpeg
Duration : 2h 21mn
Bit rate mode : Variable
Bit rate : 299 bps
Width : 640 pixels
Height : 268 pixels
Display aspect ratio : 2.40:1
Frame rate mode : Constant
Frame rate : 0.001 fps
Color space : YUV
Chroma subsampling : 4:2:0
Bit depth : 8 bits
Compression mode : Lossy
Bits/(Pixel*Frame) : 1.743
Stream size : 437 KiB (0%)
Title : Chapter Images
Language : English
Default : No
Encoded date : UTC 2017-09-11 17:01:29
Tagged date : UTC 2017-09-11 17:01:30
Menu For : 1

Audio #1
ID : 2
Format : AAC
Format/Info : Advanced Audio Codec
Format profile : LC
Codec ID : 40
Duration : 2h 21mn
Bit rate mode : Variable
Bit rate : 157 Kbps
Maximum bit rate : 217 Kbps
Channel(s) : 2 channels
Channel positions : Front: L R
Sampling rate : 48.0 KHz
Frame rate : 46.875 fps (1024 SPF)
Compression mode : Lossy
Stream size : 159 MiB (3%)
Title : Russian Stereo
Language : Russian
Default : Yes
Alternate group : 1
Encoded date : UTC 2017-09-11 17:01:14
Tagged date : UTC 2017-09-11 17:01:26
Fallback From : 4
Subtitles : 6,7

Audio #2
ID : 3
Format : AAC
Format/Info : Advanced Audio Codec
Format profile : LC
Codec ID : 40
Duration : 2h 21mn
Bit rate mode : Variable
Bit rate : 158 Kbps
Maximum bit rate : 218 Kbps
Channel(s) : 2 channels
Channel positions : Front: L R
Sampling rate : 48.0 KHz
Frame rate : 46.875 fps (1024 SPF)
Compression mode : Lossy
Stream size : 159 MiB (3%)
Title : English Stereo
Language : English
Default : No
Alternate group : 1
Encoded date : UTC 2017-09-11 17:01:14
Tagged date : UTC 2017-09-11 17:01:26
Fallback From : 5

Audio #3
ID : 4
Format : AC-3
Format/Info : Audio Coding 3
Format settings, Endianness : Big
Codec ID : ac-3
Duration : 2h 21mn
Bit rate mode : Constant
Bit rate : 384 Kbps
Channel(s) : 6 channels
Channel positions : Front: L C R, Side: L R, LFE
Sampling rate : 48.0 KHz
Frame rate : 31.250 fps (1536 SPF)
Bit depth : 16 bits
Compression mode : Lossy
Stream size : 388 MiB (8%)
Title : Russian DD 5.1
Language : Russian
Service kind : Complete Main
Default : Inherited From: 2
Alternate group : 1
Encoded date : UTC 2017-09-11 17:01:14
Tagged date : UTC 2017-09-11 17:01:26
Fallback To : 2
Subtitles : 6,7

Audio #4
ID : 5
Format : AC-3
Format/Info : Audio Coding 3
Format settings, Endianness : Big
Codec ID : ac-3
Duration : 2h 21mn
Bit rate mode : Constant
Bit rate : 640 Kbps
Channel(s) : 6 channels
Channel positions : Front: L C R, Side: L R, LFE
Sampling rate : 48.0 KHz
Frame rate : 31.250 fps (1536 SPF)
Bit depth : 16 bits
Compression mode : Lossy
Stream size : 647 MiB (13%)
Title : English DD 5.1
Language : English
Service kind : Complete Main
Default : No
Alternate group : 1
Encoded date : UTC 2017-09-11 17:01:14
Tagged date : UTC 2017-09-11 17:01:26
Fallback To : 3

Text #1
ID : 6
Format : Timed Text
Muxing mode : sbtl
Codec ID : tx3g
Duration : 2h 10mn
Bit rate mode : Variable
Bit rate : 1 bps
Stream size : 1.05 KiB (0%)
Title : Russian forced
Language : Russian
Default : Yes
Forced : Yes
Alternate group : 2
Encoded date : UTC 2017-09-11 17:01:14
Tagged date : UTC 2017-09-11 17:01:21
Subtitles For : 2,4
Full Alternative : 7

Text #2
ID : 7
Format : Timed Text
Muxing mode : sbtl
Codec ID : tx3g
Duration : 2h 12mn
Bit rate mode : Variable
Bit rate : 88 bps
Stream size : 85.9 KiB (0%)
Title : Russian full
Language : Russian
Default : No
Forced : No
Alternate group : 2
Encoded date : UTC 2017-09-11 17:01:14
Tagged date : UTC 2017-09-11 17:01:25
Subtitles For : 2,4
Forced Alternative : 6

Text #3
ID : 8
Format : Timed Text
Muxing mode : sbtl
Codec ID : tx3g
Duration : 2h 21mn
Bit rate mode : Variable
Bit rate : 54 bps
Stream size : 55.8 KiB (0%)
Title : English full
Language : English
Default : No
Forced : No
Alternate group : 2
Encoded date : UTC 2017-09-11 17:01:14
Tagged date : UTC 2017-09-11 17:01:25

Menu #1
00:00:00.000 : Chapter 1
00:10:26.918 : Chapter 2
00:23:12.558 : Chapter 3
00:33:10.739 : Chapter 4
00:43:55.133 : Chapter 5
00:54:24.636 : Chapter 6
01:07:38.263 : Chapter 7
01:22:30.195 : Chapter 8
01:34:02.846 : Chapter 9
01:45:37.998 : Chapter 10
01:57:43.765 : Chapter 11
02:10:40.791 : Chapter 12

Menu #2
ID : 9
Codec ID : text
Duration : 2h 21mn
Language : English
Encoded date : UTC 2017-09-11 17:01:26
Tagged date : UTC 2017-09-11 17:01:26
Menu For : 1
00:00:00.000 : Chapter 1
00:10:26.918 : Chapter 2
00:23:12.558 : Chapter 3
00:33:10.739 : Chapter 4
00:43:55.133 : Chapter 5
00:54:24.636 : Chapter 6
01:07:38.263 : Chapter 7
01:22:30.195 : Chapter 8
01:34:02.846 : Chapter 9
01:45:37.998 : Chapter 10
01:57:43.765 : Chapter 11
02:10:40.791 : Chapter 12
Bit rate mode : VBR
x264 [info]: frame I:2087 Avg QP:16.06 size:110635
x264 [info]: frame P:75159 Avg QP:18.54 size: 31942
x264 [info]: frame B:125973 Avg QP:20.58 size: 8466
x264 [info]: consecutive B-frames: 4.9% 25.3% 36.1% 33.7%
x264 [info]: mb I I16..4: 6.5% 61.6% 31.8%
x264 [info]: mb P I16..4: 2.2% 6.3% 2.7% P16..4: 46.8% 25.1% 11.1% 0.0% 0.0% skip: 5.8%
x264 [info]: mb B I16..4: 0.2% 0.7% 0.4% B16..8: 45.3% 9.9% 1.7% direct: 4.1% skip:37.7% L0:37.9% L1:53.6% BI: 8.5%
x264 [info]: 8x8 transform intra:57.3% inter:46.3%
x264 [info]: coded y,uvDC,uvAC intra: 79.1% 83.1% 63.2% inter: 25.0% 23.5% 12.0%
x264 [info]: i16 v,h,dc,p: 48% 13% 9% 30%
x264 [info]: i8 v,h,dc,ddl,ddr,vr,hd,vl,hu: 10% 7% 6% 11% 16% 14% 14% 11% 11%
x264 [info]: i4 v,h,dc,ddl,ddr,vr,hd,vl,hu: 9% 7% 4% 12% 17% 15% 15% 10% 10%
x264 [info]: i8c dc,h,v,p: 53% 17% 17% 13%
x264 [info]: ref P L0: 74.9% 15.3% 9.9%
x264 [info]: ref B L0: 82.2% 17.8%
x264 [info]: kb/s:3490.47
Apple TV, iPad, iPhone, iPod Touch.
Windows VLC media player

 ·  , , FAQ-
:  [ 11--2017 20:42 ]

  

.torrent

.torrent 48 KB


: 4.77 GB
(hash) : 93dcbb94f6ed5fa9cdc94b4d380b821c8615b0a3
··
...

- Wonder Woman . !

!