Скачать через торрент Новая Фабрика Звезд Фильм бесплатно в хорошем качестве torrent

Скачивайте на UnionPeer.org фильмы через торрент без регистрации. Новинки кино в хорошем качестве через торрент. На UnionPeer.org можно скачать через торрент фильмы 2014 и 2015 годов. Самые новые фильмы.

Скачать торрент Новая Фабрика Звезд бесплатно через .torrent фильм мультфильм сериал

Если у вас наблюдаются проблемы со скриншотами, переходом по ссылками, скачиванием торрентов - проблемы в блокировщике рекламы AdBlock. #хорошегоДня!


Статистика раздачи
Размер:  3.79 GB   |    Зарегистрирован:  10 дней   |    .torrent скачан:  3 раза   |   
Раздают:  1  
   
Загрузка...
 
Автор Сообщение

Galfimbul

avatar Galfimbul


Новая Фабрика Звезд (Дневники и Отчетные концерты)

Дата/Год выпуска: 2017
Страна: Россия
Жанр: ТВ Шоу
Продолжительность: ~1:40:00 концерт, ~0:30:00 дневник
Перевод: Не требуется
Ведущая: Ксения Собчак

Телеканал: Муз ТВ
Описание: Легендарный музыкальный проект возвращается на большие экраны! Продюсер Проекта - Виктор Дробыш представляет 16 юных талантов, которые были отобраны из 15 000 претендентов. Именно им в течение ближайших 4 месяцев предстоит пройти интенсивное обучение азам шоу-бизнесса, завоевать любовь зрителей и стать новыми звёздами.

качество: WEBRip
формат: MP4
Видео: MPEG-4, 656х480, 4:3, 533 Кбит/с, 25.000 fps
Аудио: AAC, 44000Hz, stereo, 126 Кбит/сек
Концерты:
Открытие 02 09 2017
1 отчётный 09 09 2017

Дневник
1)04 09 2017
2)05 09 2017
3)06 09 2017
4)07 09 2017
5)08 09 2017
<div class="sp-wrap">
<div class="sp-head folded">Дневники</div>
<div class="sp-body">General
Complete name : D:\Кино\Новая Фабрика Звёзд\Дневники\Выпуск 1 (04 09 2017).mp4
Format : MPEG-4
Format profile : Base Media
Codec ID : isom (isom/iso2/avc1/mp41)
File size : 124 MiB
Duration : 26 min 8 s
Overall bit rate : 665 kb/s
Writing application : Lavf57.2.100

Video
ID : 1
Format : AVC
Format/Info : Advanced Video Codec
Format profile : Main@L3
Format settings : CABAC / 3 Ref Frames
Format settings, CABAC : Yes
Format settings, RefFrames : 3 frames
Codec ID : avc1
Codec ID/Info : Advanced Video Coding
Duration : 26 min 8 s
Bit rate : 533 kb/s
Width : 656 pixels
Height : 480 pixels
Display aspect ratio : 4:3
Frame rate mode : Constant
Frame rate : 25.000 FPS
Color space : YUV
Chroma subsampling : 4:2:0
Bit depth : 8 bits
Scan type : Progressive
Bits/(Pixel*Frame) : 0.068
Stream size : 99.6 MiB (80%)
Color range : Limited
Color primaries : BT.601 PAL
Transfer characteristics : BT.709
Matrix coefficients : BT.601

Audio
ID : 2
Format : AAC
Format/Info : Advanced Audio Codec
Format profile : LC
Codec ID : mp4a-40-2
Duration : 26 min 8 s
Bit rate mode : Constant
Bit rate : 126 kb/s
Channel(s) : 2 channels
Channel positions : Front: L R
Sampling rate : 44.1 kHz
Frame rate : 43.066 FPS (1024 SPF)
Compression mode : Lossy
Stream size : 23.5 MiB (19%)
Default : Yes
Alternate group : 1
General
Complete name : D:\Кино\Новая Фабрика Звёзд\Концерты\1 отчетный концерт (09 09 2017).mp4
Format : MPEG-4
Format profile : Base Media / Version 2
Codec ID : mp42 (isom/mp42)
File size : 1.71 GiB
Duration : 1 h 43 min
Overall bit rate mode : Variable
Overall bit rate : 2 361 kb/s
Encoded date : UTC 2017-09-11 09:16:07
Tagged date : UTC 2017-09-11 09:16:07
gsst : 0
gstd : 6228265

Video
ID : 1
Format : AVC
Format/Info : Advanced Video Codec
Format profile : Main@L3.1
Format settings : CABAC / 3 Ref Frames
Format settings, CABAC : Yes
Format settings, RefFrames : 3 frames
Codec ID : avc1
Codec ID/Info : Advanced Video Coding
Duration : 1 h 43 min
Bit rate : 2 232 kb/s
Width : 1 280 pixels
Height : 720 pixels
Display aspect ratio : 16:9
Frame rate mode : Constant
Frame rate : 25.000 FPS
Color space : YUV
Chroma subsampling : 4:2:0
Bit depth : 8 bits
Scan type : Progressive
Bits/(Pixel*Frame) : 0.097
Stream size : 1.62 GiB (95%)
Title : ISO Media file produced by Google Inc. Created on: 09/11/2017.
Encoded date : UTC 2017-09-11 09:16:07
Tagged date : UTC 2017-09-11 09:16:07
Color range : Limited
Color primaries : BT.709
Transfer characteristics : BT.709
Matrix coefficients : BT.709

Audio
ID : 2
Format : AAC
Format/Info : Advanced Audio Codec
Format profile : LC
Codec ID : mp4a-40-2
Duration : 1 h 43 min
Source duration : 1 h 43 min
Bit rate mode : Variable
Bit rate : 126 kb/s
Channel(s) : 2 channels
Channel positions : Front: L R
Sampling rate : 44.1 kHz
Frame rate : 43.066 FPS (1024 SPF)
Compression mode : Lossy
Stream size : 93.2 MiB (5%)
Source stream size : 93.2 MiB (5%)
Title : ISO Media file produced by Google Inc. Created on: 09/11/2017.
Encoded date : UTC 2017-09-11 09:16:07
Tagged date : UTC 2017-09-11 09:16:07
</div>
</div>

Трекер:  [ 11-Сен-2017 20:12 ]

  

Скачать .torrent

Размер .torrent файла 20 KB


Размер: 3.79 GB
Хэш (hash) релиза: cf075e8e628265d9ff39ed4b29ea3ce26adeccc1
Подписка на обновления:

Торренты, похожие на Новая Фабрика Звезд скачать торрент

Форум Название Автор Размер S L Добавлен
Развлекательные телепередачи и шоу ·· Новая Фабрика Звезд (1 выпуск) [2017, ТВ-шоу, WEB-DL, 1080p] Galfimbul 31785787642.96 GB 0 0 1504424961

10:49

3-Сен-17

Развлекательные телепередачи и шоу ·· Алиса Тарабарова - все выступления на «Фабрике звёзд-2» и «Фабрике Суперфинал» (Новый канал) [2008 г., Шоу, TVRip] Galfimbul 92152530368.58 GB 0 0 1452458834

23:47

10-Янв-16

Еще никто не оставлял запись к записи скачать торрент Новая Фабрика Звезд . Будь первым!

!Обратная связь