[ATV3] - Wonder Woman torrent

, , - AdBlock. #!


9.22 GB   |    :  9    |    .torrent :  4    |   
1  
   
...
 

Galfimbul

avatar Galfimbul


- / Wonder Woman


6.877 / 10 8.00 / 10
: 2017
: , , , , ,
: , , , ,
: 02:21:15

: (iTunes)
:
C: , ,
:
: , . ,
: , ,
:
: -
: , ,
:
: , , , , , , , , ,

: $149 000 000
: $410 503 142
: + $405 800 000 = $816 303 142
: $8 176 049

: 15 2017
(): 1 2017, -

: -, , . , , , , , . , , . : Blu-Ray (BlueBird)
: BDRip
: HD (1080p)
: M4V
: H.264, 1920x800, 2.40:1, 8 000 Kbps, 23.976 (24000/1001) fps

1: / (iTunes), AAC / 2.0 / 160 Kbps / 48.0 KHz
2: / , AAC / 2.0 / 160 Kbps / 48.0 KHz
3: / (iTunes), AC-3 / 5.1 / 384 Kbps / 48.0 KHz
4: / , AC-3 / 5.1 / 640 Kbps / 48.0 KHz

1:
2:
3:
Sort Name: Wonder Woman
XID: Apple:vendor_id:2017-102383
contentID: 1235765633
Copyright: 2017 Warner Bros. Entertainment Inc. and RatPac-Dune Entertainment LLC. WONDER WOMAN and all related characters and elements are trademarks of and copyright DC Comics.
Screenwriters: , . ,
Producers: , ,
Director:
Cast: , , , , , , , , ,
Studio: Warner Bros.
Rating Annotation: Rated PG-13 for sequences of violence and action, and some suggestive content.
Rating: 4
Long Description: -, - , . , , , , , . , , .
Description: , -.
Release Date: 2017-05-15T08:00:00Z
Genre: Action & Adventure
Artist: Patty Jenkins
Name: Wonder Woman (2017)
General
Complete name : /Users/imac/HandBrake/Wonder Woman (1080p HD).m4v
Format : MPEG-4
Codec ID : M4V (M4V /M4A /mp42/isom)
File size : 9.22 GiB
Duration : 2h 21mn
Overall bit rate mode : Variable
Overall bit rate : 9 346 Kbps
Movie name : Wonder Woman (2017)
Performer : Patty Jenkins
Director :
Actor : / / / / / / / / /
Screenplay by : / . /
Producer : / /
Production studio : Warner Bros.
Genre : Action & Adventure
ContentType : Short Film
Description : , -.
Recorded date : UTC 2017-05-15 08:00:00
Encoded date : UTC 2017-09-11 10:04:05
Tagged date : UTC 2017-09-11 10:09:04
Copyright : 2017 Warner Bros. Entertainment Inc. and RatPac-Dune Entertainment LLC. WONDER WOMAN and all related characters and elements are trademarks of and copyright DC Comics.
Cover : Yes
Rating : None
Title/Sort : Wonder Woman
LongDescription : -, - , . , , , , , . , , .
AppleStoreCatalogID : 1235765633
Vendor : Apple:vendor_id:2017-102383
ContentRating : mpaa|PG-13|300|Rated PG-13 for sequences of violence and action, and some suggestive content.

Video #1
ID : 1
Format : AVC
Format/Info : Advanced Video Codec
Format profile : High@L4
Format settings, CABAC : Yes
Format settings, ReFrames : 4 frames
Codec ID : avc1
Codec ID/Info : Advanced Video Coding
Duration : 2h 21mn
Source duration : 2h 21mn
Bit rate : 8 000 Kbps
Width : 1 920 pixels
Height : 800 pixels
Display aspect ratio : 2.40:1
Frame rate mode : Variable
Frame rate : 23.976 (24000/1001) fps
Minimum frame rate : 23.974 fps
Maximum frame rate : 23.981 fps
Color space : YUV
Chroma subsampling : 4:2:0
Bit depth : 8 bits
Scan type : Progressive
Bits/(Pixel*Frame) : 0.217
Stream size : 7.89 GiB (86%)
Source stream size : 7.89 GiB (86%)
Title : Main Program
Writing library : x264 core 148 r2708 86b7198
Encoding settings : cabac=1 / ref=4 / deblock=1:-2:-2 / analyse=0x3:0x133 / me=umh / subme=10 / psy=1 / psy_rd=1.00:0.15 / mixed_ref=1 / me_range=32 / chroma_me=1 / trellis=2 / 8x8dct=1 / cqm=0 / deadzone=21,11 / fast_pskip=1 / chroma_qp_offset=-3 / threads=25 / lookahead_threads=6 / sliced_threads=0 / nr=0 / decimate=0 / interlaced=0 / bluray_compat=0 / constrained_intra=0 / bframes=16 / b_pyramid=2 / b_adapt=2 / b_bias=0 / direct=3 / weightb=1 / open_gop=0 / weightp=2 / keyint=240 / keyint_min=24 / scenecut=40 / intra_refresh=0 / rc_lookahead=40 / rc=2pass / mbtree=1 / bitrate=8000 / ratetol=1.0 / qcomp=0.70 / qpmin=0 / qpmax=69 / qpstep=4 / cplxblur=20.0 / qblur=0.5 / ip_ratio=1.40 / aq=1:1.00
Language : English
Encoded date : UTC 2017-09-11 10:04:05
Tagged date : UTC 2017-09-11 10:04:34
Color range : Limited
Color primaries : BT.709
Transfer characteristics : BT.709
Matrix coefficients : BT.709
Menus : 9,10

Video #2
ID : 10
Format : JPEG
Codec ID : jpeg
Duration : 2h 21mn
Bit rate mode : Variable
Bit rate : 295 bps
Width : 640 pixels
Height : 266 pixels
Display aspect ratio : 2.40:1
Frame rate mode : Constant
Frame rate : 0.001 fps
Color space : YUV
Chroma subsampling : 4:2:0
Bit depth : 8 bits
Compression mode : Lossy
Bits/(Pixel*Frame) : 1.733
Stream size : 432 KiB (0%)
Title : Chapter Images
Language : English
Default : No
Encoded date : UTC 2017-09-11 10:04:41
Tagged date : UTC 2017-09-11 10:04:41
Menu For : 1

Audio #1
ID : 2
Format : AAC
Format/Info : Advanced Audio Codec
Format profile : LC
Codec ID : 40
Duration : 2h 21mn
Bit rate mode : Variable
Bit rate : 157 Kbps
Maximum bit rate : 217 Kbps
Channel(s) : 2 channels
Channel positions : Front: L R
Sampling rate : 48.0 KHz
Frame rate : 46.875 fps (1024 SPF)
Compression mode : Lossy
Stream size : 159 MiB (2%)
Title : Russian Stereo
Language : Russian
Default : Yes
Alternate group : 1
Encoded date : UTC 2017-09-11 10:04:05
Tagged date : UTC 2017-09-11 10:04:35
Fallback From : 4
Subtitles : 6,7
Menus : 9

Audio #2
ID : 3
Format : AAC
Format/Info : Advanced Audio Codec
Format profile : LC
Codec ID : 40
Duration : 2h 21mn
Bit rate mode : Variable
Bit rate : 158 Kbps
Maximum bit rate : 218 Kbps
Channel(s) : 2 channels
Channel positions : Front: L R
Sampling rate : 48.0 KHz
Frame rate : 46.875 fps (1024 SPF)
Compression mode : Lossy
Stream size : 159 MiB (2%)
Title : English Stereo
Language : English
Default : No
Alternate group : 1
Encoded date : UTC 2017-09-11 10:04:05
Tagged date : UTC 2017-09-11 10:04:35
Fallback From : 5

Audio #3
ID : 4
Format : AC-3
Format/Info : Audio Coding 3
Format settings, Endianness : Big
Codec ID : ac-3
Duration : 2h 21mn
Bit rate mode : Constant
Bit rate : 384 Kbps
Channel(s) : 6 channels
Channel positions : Front: L C R, Side: L R, LFE
Sampling rate : 48.0 KHz
Frame rate : 31.250 fps (1536 SPF)
Bit depth : 16 bits
Compression mode : Lossy
Stream size : 388 MiB (4%)
Title : Russian DD 5.1
Language : Russian
Service kind : Complete Main
Default : Inherited From: 2
Alternate group : 1
Encoded date : UTC 2017-09-11 10:04:05
Tagged date : UTC 2017-09-11 10:04:12
Fallback To : 2
Subtitles : 6,7

Audio #4
ID : 5
Format : AC-3
Format/Info : Audio Coding 3
Format settings, Endianness : Big
Codec ID : ac-3
Duration : 2h 21mn
Bit rate mode : Constant
Bit rate : 640 Kbps
Channel(s) : 6 channels
Channel positions : Front: L C R, Side: L R, LFE
Sampling rate : 48.0 KHz
Frame rate : 31.250 fps (1536 SPF)
Bit depth : 16 bits
Compression mode : Lossy
Stream size : 647 MiB (7%)
Title : English DD 5.1
Language : English
Service kind : Complete Main
Default : No
Alternate group : 1
Encoded date : UTC 2017-09-11 10:04:05
Tagged date : UTC 2017-09-11 10:04:12
Fallback To : 3

Text #1
ID : 6
Format : Timed Text
Muxing mode : sbtl
Codec ID : tx3g
Duration : 2h 10mn
Bit rate mode : Variable
Bit rate : 1 bps
Stream size : 1.13 KiB (0%)
Title : Russian forced
Language : Russian
Default : Yes
Forced : Yes
Alternate group : 2
Encoded date : UTC 2017-09-11 10:04:05
Tagged date : UTC 2017-09-11 10:04:05
Subtitles For : 2,4
Full Alternative : 7

Text #2
ID : 7
Format : Timed Text
Muxing mode : sbtl
Codec ID : tx3g
Duration : 2h 13mn
Bit rate mode : Variable
Bit rate : 88 bps
Stream size : 85.9 KiB (0%)
Title : Russian full
Language : Russian
Default : No
Forced : No
Alternate group : 2
Encoded date : UTC 2017-09-11 10:04:05
Tagged date : UTC 2017-09-11 10:04:05
Subtitles For : 2,4
Forced Alternative : 6

Text #3
ID : 8
Format : Timed Text
Muxing mode : sbtl
Codec ID : tx3g
Duration : 2h 21mn
Bit rate mode : Variable
Bit rate : 54 bps
Stream size : 55.8 KiB (0%)
Title : English full
Language : English
Default : No
Forced : No
Alternate group : 2
Encoded date : UTC 2017-09-11 10:04:05
Tagged date : UTC 2017-09-11 10:04:05

Menu #1
00:00:00.000 : Chapter 1
00:10:26.918 : Chapter 2
00:23:12.558 : Chapter 3
00:33:10.739 : Chapter 4
00:43:55.133 : Chapter 5
00:54:24.636 : Chapter 6
01:07:38.263 : Chapter 7
01:22:30.195 : Chapter 8
01:34:02.846 : Chapter 9
01:45:37.998 : Chapter 10
01:57:43.765 : Chapter 11
02:10:40.791 : Chapter 12

Menu #2
ID : 9
Codec ID : text
Duration : 2h 21mn
Language : English
Encoded date : UTC 2017-09-11 10:04:35
Tagged date : UTC 2017-09-11 10:04:35
Menu For : 2,1
00:00:00.000 : Chapter 1
00:10:26.918 : Chapter 2
00:23:12.558 : Chapter 3
00:33:10.739 : Chapter 4
00:43:55.133 : Chapter 5
00:54:24.636 : Chapter 6
01:07:38.263 : Chapter 7
01:22:30.195 : Chapter 8
01:34:02.846 : Chapter 9
01:45:37.998 : Chapter 10
01:57:43.765 : Chapter 11
02:10:40.791 : Chapter 12
Bit rate mode : VBR
x264 [info]: frame I:1250 Avg QP:16.58 size:210682
x264 [info]: frame P:48269 Avg QP:19.76 size: 72575
x264 [info]: frame B:153700 Avg QP:20.94 size: 30625
x264 [info]: consecutive B-frames: 3.1% 4.5% 10.9% 19.5% 19.3% 29.8% 7.7% 1.6% 1.7% 0.8% 0.7% 0.2% 0.2% 0.1% 0.0% 0.0% 0.0%
x264 [info]: mb I I16..4: 11.5% 74.1% 14.4%
x264 [info]: mb P I16..4: 3.2% 17.9% 1.2% P16..4: 43.2% 17.0% 10.8% 0.4% 0.1% skip: 6.2%
x264 [info]: mb B I16..4: 0.3% 2.2% 0.1% B16..8: 42.6% 9.3% 2.2% direct: 8.9% skip:34.4% L0:42.9% L1:43.7% BI:13.4%
x264 [info]: 8x8 transform intra:81.2% inter:61.6%
x264 [info]: direct mvs spatial:98.6% temporal:1.4%
x264 [info]: coded y,uvDC,uvAC intra: 84.3% 85.1% 66.5% inter: 32.5% 33.0% 12.0%
x264 [info]: i16 v,h,dc,p: 40% 13% 15% 32%
x264 [info]: i8 v,h,dc,ddl,ddr,vr,hd,vl,hu: 8% 7% 11% 10% 14% 13% 13% 12% 13%
x264 [info]: i4 v,h,dc,ddl,ddr,vr,hd,vl,hu: 8% 8% 5% 10% 15% 14% 15% 11% 15%
x264 [info]: i8c dc,h,v,p: 49% 19% 15% 16%
x264 [info]: Weighted P-Frames: Y:2.9% UV:1.7%
x264 [info]: ref P L0: 54.4% 10.7% 23.9% 10.3% 0.7% 0.0%
x264 [info]: ref B L0: 85.7% 12.1% 2.3%
x264 [info]: ref B L1: 94.6% 5.4%
x264 [info]: kb/s:7997.64
Apple TV, iPad, iPhone, iPod Touch.
Windows VLC media player

 ·  , , FAQ-
:  [ 11--2017 20:12 ]

  

.torrent

.torrent 92 KB


: 9.22 GB
(hash) : 1f2a963b1e614828bc6bed83bf098721c84f3365
··
...

[ATV3] - Wonder Woman . !

!