Скачать порно через торрент Terra Story TriAngle UnionPeer.org бесплатно онлайн HD качество

Скачать новое порно 2015, 2014 новинки через торрент UnionPeer.org

Порно торрент бесплатно ЮнионПир.орг

Если у вас наблюдаются проблемы со скриншотами, переходом по ссылками, скачиванием торрентов - проблемы в блокировщике рекламы AdBlock. #хорошегоДня!


Статистика раздачи
Размер:  731 MB   |    Зарегистрирован:  2 месяца 10 дней   |    .torrent скачан:  272 раза   |   
Раздают:  1  
   
Загрузка...
 
Автор Сообщение

Galfimbul

avatar Galfimbul


Terra Story
TriAngle
テラストーリー
Любовный треугольник

Год выпуска: 1998
Жанр: romance
Серии: ep. 1-2 of 2
Продолжительность: 2*29mn
Цензура: Отсутствует

Озвучка: Японская оригинальная
Озвучка: Английская профессиональная (полное дублирование) внешняя
Субтитры: Русские [Sevotart & Narrru & Alex Malkavian] внешние ASS

Режиссер: Makino Yukihiro
Автор оригинала: 日高豊
Студия: O2 Creative

Описание на английском: Keisiuke is a high school student. He falls in love with Misa at first sight. Because he doesn’t understand how the girl thinks, he is advised to date with other girls to study. Before the date, he happens to meet Misa and confesses his thought. Several days later, Misa finds him with another girl, and she misunderstands their relations.

Описание на русском: Старшеклассник Кейске влюбился в Мису с первого взгляда. Но так как он не понимает женской логики, ему посоветовали сходить на свидания с другими девушками, чтобы подучиться. Перед таким свиданием он признался Мисе. Через несколько дней Миса увидела его с другой девушкой и сделала из этого ложные выводы.

Качество видео: DVDrip [торрент иваниваныч]
Разрешение видео: 480p
Формат видео: MKV
Видео: 702-478, 4-3, 23.976 fps, AVC, 1217-1325 kbps
Аудио 1: jpn, AC-3, Stereo, 48.0 KHz, 224 kbps
Аудио 2: eng, AC-3, Stereo, 48.0 KHz, 224 kbps
General
Unique ID : 190130012548839816012855257105571168835 (0x8F09B55CF180285C9420840A1EE2C243)
Complete name : Terra_story_01_[Galan_rus_raw][4087303D].mkv
Format : Matroska
Format version : Version 2
File size : 330 MiB
Duration : 29 min 10 s
Overall bit rate : 1 581 kb/s
Movie name : рип торрент иваниваныч
Encoded date : UTC 2017-09-10 17:30:53
Writing application : mkvmerge v6.0.0 ('Coming Up For Air') built on Jan 20 2013 09:52:00
Writing library : libebml v1.3.0 + libmatroska v1.4.0

Video
ID : 1
Format : AVC
Format/Info : Advanced Video Codec
Format profile : High 10@L5.2
Format settings, CABAC : Yes
Format settings, ReFrames : 16 frames
Codec ID : V_MPEG4/ISO/AVC
Duration : 29 min 10 s
Bit rate : 1 325 kb/s
Width : 702 pixels
Height : 478 pixels
Display aspect ratio : 4:3
Original display aspect ratio : 4:3
Frame rate mode : Constant
Frame rate : 23.976 (24000/1001) FPS
Color space : YUV
Chroma subsampling : 4:2:0
Bit depth : 10 bits
Scan type : Progressive
Bits/(Pixel*Frame) : 0.165
Stream size : 277 MiB (84%)
Title : Terra story 01
Writing library : x264 core 146 r2538 121396c
Encoding settings : cabac=1 / ref=16 / deblock=1:-1:-1 / analyse=0x3:0x133 / me=tesa / subme=9 / psy=0 / mixed_ref=1 / me_range=32 / chroma_me=1 / trellis=0 / 8x8dct=1 / cqm=0 / deadzone=21,11 / fast_pskip=0 / chroma_qp_offset=0 / threads=12 / lookahead_threads=3 / sliced_threads=0 / nr=0 / decimate=1 / interlaced=0 / bluray_compat=0 / constrained_intra=0 / bframes=16 / b_pyramid=2 / b_adapt=2 / b_bias=0 / direct=3 / weightb=1 / open_gop=0 / weightp=2 / keyint=250 / keyint_min=23 / scenecut=40 / intra_refresh=0 / rc_lookahead=60 / rc=crf / mbtree=1 / crf=14.0 / qcomp=0.70 / qpmin=0 / qpmax=81 / qpstep=4 / ip_ratio=1.40 / aq=3:0.60
Language : Japanese
Default : Yes
Forced : No

Audio
ID : 2
Format : AC-3
Format/Info : Audio Coding 3
Format settings, Endianness : Big
Codec ID : A_AC3
Duration : 29 min 10 s
Bit rate mode : Constant
Bit rate : 224 kb/s
Channel(s) : 2 channels
Channel positions : Front: L R
Sampling rate : 48.0 kHz
Frame rate : 31.250 FPS (1536 spf)
Bit depth : 16 bits
Compression mode : Lossy
Stream size : 46.7 MiB (14%)
Title : jpn
Language : Japanese
Service kind : Complete Main
Default : Yes
Forced : No

Menu
00:00:00.000 : en:Chapter 01
00:08:35.314 : en:Chapter 02
00:23:05.450 : en:Chapter 03
От Narrru – лучше видео, сравнение, сравнение с двд, русские субтитры.


Трекер:  [ 11-Сен-2017 19:50 ]

  

Скачать .torrent

Размер .torrent файла 15 KB


Размер: 731 MB
Хэш (hash) релиза: 207a91f69422255ff4d82d316a60a0b2147b5011

Еще никто не оставлял запись к записи скачать торрент Terra Story TriAngle . Будь первым!

!Обратная связь