Скачать через торрент Чужестранка Outlander Фильм бесплатно в хорошем качестве torrent

Скачивайте на UnionPeer.org фильмы через торрент без регистрации. Новинки кино в хорошем качестве через торрент. На UnionPeer.org можно скачать через торрент фильмы 2014 и 2015 годов. Самые новые фильмы.

Скачать торрент Чужестранка Outlander бесплатно через .torrent фильм мультфильм сериал

Если у вас наблюдаются проблемы со скриншотами, переходом по ссылками, скачиванием торрентов - проблемы в блокировщике рекламы AdBlock. #хорошегоДня!


Статистика раздачи
Размер:  650 MB   |    Зарегистрирован:  10 дней   |    .torrent скачан:  16 раз   |   
Раздают:  2  
   
Загрузка...
 
Автор Сообщение

Galfimbul

avatar Galfimbul


Чужестранка / Outlander
Год выпуска: 2017
Страна: США
Жанр: фантастика, драма, мелодрама
Продолжительность: 00:55:00Перевод: Любительский (многоголосый закадровый) BaibakoРежиссёр: Анна Ферстер, Брайан Келли, Ричард Кларк, Джон ДалВ ролях: Каитриона Бэлфи, Сэм Юэн, Дункан Лакруа, Гари Льюис, Грэм Мак Тавиш, Тобиаш Мензес, Стивен Уолтерс, Аннет Бэдленд, Родерик

Описание: Клэр, работавшая медсестрой во время Второй мировой войны, случайно перемещается во времени и попадает в 1743 год. В этом мире, полном приключений, она знакомится с шотландским рыцарем Джейми. У героев завязывается страстный роман, несмотря на то, что сердце Клэр разрывается между двумя мужчинами — Джейми и ее мужем Фрэнком, который остался в другом времени. Качество: WEBRip
Формат: AVI
Видео: 720x400 (16:9), 23.976 fps, XviD build 73, 1407 Kbps, 0.20 bit/pixe
Аудио: MP3, 48 kHz, 2 ch, 128 kbps, CBR - Rus
Аудио: MP3, 48 kHz, 2 ch, 128 kbps, CBR - Eng
Субтитры: отсутствуют

Реклама: полностью отсутствует
General
Complete name : Downloads\Outlander (Season 03) BaibaKo\Outlander.s03e01.WEBRip.Rus.Eng.BaibaKo.avi
Format : AVI
Format/Info : Audio Video Interleave
File size : 650 MiB
Duration : 54mn 14s
Overall bit rate : 1 677 Kbps
Writing application : VirtualDubMod 1.5.10.3 | www.virtualdub-fr.org || (build 2550/release)
Writing library : VirtualDubMod build 2550/release
Video #0
ID : 0
Format : MPEG-4 Visual
Format profile : Advanced Simple@L5
Format settings, BVOP : 1
Format settings, QPel : No
Format settings, GMC : No warppoints
Format settings, Matrix : Default (MPEG)
Codec ID : XVID
Codec ID/Hint : XviD
Duration : 54mn 14s
Bit rate : 1 407 Kbps
Width : 720 pixels
Height : 400 pixels
Display aspect ratio : 16:9
Frame rate : 23.976 fps
Color space : YUV
Chroma subsampling : 4:2:0
Bit depth : 8 bits
Scan type : Progressive
Compression mode : Lossy
Bits/(Pixel*Frame) : 0.204
Stream size : 546 MiB (84%)
Writing library : XviD 73
Audio #1
ID : 1
Format : MPEG Audio
Format version : Version 1
Format profile : Layer 3
Mode : Joint stereo
Mode extension : MS Stereo
Codec ID : 55
Codec ID/Hint : MP3
Duration : 54mn 14s
Bit rate mode : Constant
Bit rate : 128 Kbps
Channel(s) : 2 channels
Sampling rate : 48.0 KHz
Compression mode : Lossy
Stream size : 49.7 MiB (8%)
Alignment : Aligned on interleaves
Interleave, duration : 42 ms (1.00 video frame)
Interleave, preload duration : 504 ms
Audio #2
ID : 2
Format : MPEG Audio
Format version : Version 1
Format profile : Layer 3
Mode : Joint stereo
Mode extension : MS Stereo
Codec ID : 55
Codec ID/Hint : MP3
Duration : 54mn 14s
Bit rate mode : Constant
Bit rate : 128 Kbps
Channel(s) : 2 channels
Sampling rate : 48.0 KHz
Compression mode : Lossy
Stream size : 49.7 MiB (8%)
Alignment : Aligned on interleaves
Interleave, duration : 42 ms (1.00 video frame)
Interleave, preload duration : 504 ms


Трекер:  [ 11-Сен-2017 17:48 ]

  

Скачать .torrent

Размер .torrent файла 13 KB


Размер: 650 MB
Хэш (hash) релиза: 2c103f8da7becacd347d8bc17c6cecf140fd163d
Подписка на обновления:

Торренты, похожие на Чужестранка Outlander скачать торрент

Форум Название Автор Размер S L Добавлен
Зарубежные сериалы ·· Чужестранка / Outlander / Сезон: 3 / Серии: 1 из 13 (Брайан Келли, Анна Ферстер / Brian Kelly, Anna Foerster) [2017, США, фантастика, драма, мелодрама, WEB-DL 720p] MVO (NewStudio, BaibaKo) + Original + Subs (Rus, Eng) Galfimbul 19538332381.82 GB 2 0 1505204671

11:24

12-Сен-17

Зарубежные сериалы ·· Чужестранка / Outlander / Сезон: 3 / Серии: 1 из 13 (Брайан Келли, Анна Ферстер / Brian Kelly, Anna Foerster) [2016, США, фантастика, драма, мелодрама, WEB-DL 1080p] MVO (NewStudio, BaibaKo) + Original + Subs (Rus, Eng) Galfimbul 33784593533.15 GB 0 0 1505199278

09:54

12-Сен-17

Зарубежные сериалы ·· Чужестранка / Outlander / Сезон: 2 / Серии: 1-3 из 13 (Брайан Келли, Анна Ферстер / Brian Kelly, Anna Foerster) [2016, фантастика, драма, мелодрама, WEB-DL 720p] MVO (NewStudio, Baibako, FocusStudio) + Original + Subs (Rus, Eng) Galfimbul 81625919557.6 GB 0 0 1462213085

21:18

2-Май-16

Зарубежные сериалы ·· Чужестранка / Outlander / Сезон: 2 / Серии: 1-3 из 13 (Анна Ферстер, Брайан Келли, Ричард Кларк) [2016, фантастика, драма, мелодрама, WEB-DLRip] MVO (NewStudio) + Original + Subs (Rus, Eng) Galfimbul 22025224762.05 GB 0 0 1461831692

11:21

28-Апр-16

Зарубежные сериалы ·· Чужестранка / Outlander / Сезон: 2 / Серии: 1-3 из 13 (Брайан Келли, Анна Ферстер / Brian Kelly, Anna Foerster) [2016, фантастика, драма, мелодрама, WEBRip] MVO (BaibaKo) + Original Galfimbul 23636263452.2 GB 0 0 1461601496

19:24

25-Апр-16

Зарубежные сериалы ·· Чужестранка / Outlander / Сезон: 2 / Серии: 1-3 из 13 (Брайан Келли, Анна Ферстер / Brian Kelly, Anna Foerster) [2016, фантастика, драма, мелодрама, WEBRip 720p] MVO (BaibaKo) + Original Galfimbul 62006381755.77 GB 0 0 1461599682

18:54

25-Апр-16

Еще никто не оставлял запись к записи скачать торрент Чужестранка Outlander . Будь первым!

!Обратная связь