Скачать через торрент Вопреки здравому смыслу Опровергая Евклида Фильм бесплатно в хорошем качестве torrent

Скачивайте на UnionPeer.org фильмы через торрент без регистрации. Новинки кино в хорошем качестве через торрент. На UnionPeer.org можно скачать через торрент фильмы 2014 и 2015 годов. Самые новые фильмы.

Скачать торрент Вопреки здравому смыслу Опровергая Евклида бесплатно через .torrent фильм мультфильм сериал

Если у вас наблюдаются проблемы со скриншотами, переходом по ссылками, скачиванием торрентов - проблемы в блокировщике рекламы AdBlock. #хорошегоДня!


Статистика раздачи
Размер:  5.89 GB   |    Зарегистрирован:  10 дней   |    .torrent скачан:  5 раз   |   
Раздают:  1   Качают:  2  
   
Загрузка...
 
Автор Сообщение

Galfimbul

avatar Galfimbul


Вопреки здравому смыслу / Опровергая Евклида

Страна: Россия, Украина
Студия: STAR MEDIA, Мостелефильм
Жанр: Мелодрама, криминал
Год выпуска: 2008
Продолжительность: 01:28:55

Перевод: Не требуется
Субтитры: нет
Оригинальная аудио дорожка: Русский

Режиссёр: Сайдо Курбанов

В ролях: Ирина Апексимова, Михаил Хмуров, Андрей Чернышов, Светлана Фатина, Андрей Биланов, Расми Джабраилов, Ирина Яковлева, Александр Симонец, Эдуард Марцевич, Борис Клюев, Юрий Гумиров

Описание: Марина – успешная бизнес-леди, специалист по ландшафтному дизайну. Более того, она – дочь замминистра строительства. И – счастливая невеста. Все складывается просто замечательно. Но вот Марина застает жениха в пикантной ситуации с фотомоделью и ...отменяет свадьбу. Чтобы отвлечься, она соглашается выполнить заказ своего старого знакомого Сергея Баринова - нынче владельца крупной строительной фирмы. Тот начинает активно ухаживать за Мариной, но - безуспешно. В это же время девушка знакомится с бывшим заключенным Богданом. Он - бывший компаньон Баринова – в свое время спас Сергея от смерти, а сам сел на 9 лет в тюрьму за убийство. Баринову тогда достался весь их совместный бизнес, поэтому сейчас Богдан расчитывает на половину нынешнего капитала бизнесмена. Баринову это, естественно, не нравится.Более того, между Мариной и Богданом завязываются нежные отношения, что еще больше раздражает Баринова. Он пытается унизить и прогнать Богдана. Во время драки возникает пистолет Сергея, из которого тот ранит появившегося отца Марины. Но Баринов обвиняет во всем Богдана, и тому грозит новое заключение.....

Доп. информация:
Автор релиза -
Источник аудио и видео - HDTV 1080i TS - моя запись с канала Наш Кинороман HD

Сэмпл: https://yadi.sk/i/3qXEvI0e3KqTCc

Рекламы нет!

Качество видео: HDTV 1080i
Формат видео: TS

Видео: MPEG-4, 1920x1080 (16:9), 25.000 fps, 8364 kbps, 0.161 bit/pixel
Аудио 1: Русский MP2, 48000 Гц, 2ch, 192 kbps
Аудио 2: Русский AC3, 48000 Гц, 6ch, 448 kbps
ОбщееИдентификатор : 1 (0x1)Полное имя : D:\Вопреки.здравому.смыслу.2008.HDTV.1080i-ylnian.tsФормат : MPEG-TSРазмер файла : 5,89 ГбайтПродолжительность : 1 ч. 28 м.Режим общего битрейта : ПеременныйОбщий поток : 9478 Кбит/сек

ВидеоИдентификатор : 3551 (0xDDF)Идентификатор меню : 17015 (0x4277)Формат : AVCФормат/Информация : Advanced Video CodecПрофиль формата : Main@L4Параметр CABAC формата : ДаПараметр ReFrames формата : 4 кадраПараметр GOP формата : M=1, N=32Идентификатор кодека : 27Продолжительность : 1 ч. 28 м.Битрейт : 8364 Кбит/секШирина : 1920 пикселейВысота : 1080 пикселейСоотношение сторон : 16:9Частота кадров : 25,000 кадров/секЦветовое пространство : YUVСубдискретизация насыщенности : 4:2:0Битовая глубина : 8 битТип развёртки : ЧересстрочнаяМетод сохранения типа развёртки : Раздельные поляПорядок развёртки : Верхнее поле первоеБит/(Пиксели*Кадры) : 0.161Размер потока : 5,19 Гбайт (88%)Цветовой диапазон : LimitedОсновные цвета : BT.709Характеристики трансфера : BT.709Коэффициенты матрицы : BT.709

Аудио #1Идентификатор : 3552 (0xDE0)Идентификатор меню : 17015 (0x4277)Формат : MPEG AudioВерсия формата : Version 1Профиль формата : Layer 2Идентификатор кодека : 3Продолжительность : 1 ч. 28 м.Вид битрейта : ПостоянныйБитрейт : 192 Кбит/секКаналы : 2 каналаЧастота : 48,0 КГцМетод сжатия : С потерямиРазмер потока : 122 Мбайт (2%)Язык : Russian

Аудио #2Идентификатор : 3553 (0xDE1)Идентификатор меню : 17015 (0x4277)Формат : AC-3Формат/Информация : Audio Coding 3Параметр Endianness формата : BigИдентификатор кодека : 6Продолжительность : 1 ч. 28 м.Вид битрейта : ПостоянныйБитрейт : 448 Кбит/секКаналы : 6 каналовРасположение каналов : Front: L C R, Side: L R, LFEЧастота : 48,0 КГцЧастота кадров : 31,250 кадров/сек (1536 spf)Битовая глубина : 16 битМетод сжатия : С потерямиРазмер потока : 285 Мбайт (5%)Язык : RussianServiceKind/String : Complete Main
Сравнение скриншотов с DVDRip-ом - http://screenshotcomparison.com/comparison/211366

DVDRip --->>> HDTVRip
--->>>
--->>>
--->>>


Трекер:  [ 11-Сен-2017 17:01 ]

  

Скачать .torrent

Размер .torrent файла 30 KB


Размер: 5.89 GB
Хэш (hash) релиза: 02ed927e027692c21a2b5353ea1f137a5efc0a4e
Подписка на обновления:

Торренты, похожие на Вопреки здравому смыслу Опровергая Евклида скачать торрент

Форум Название Автор Размер S L Добавлен
Российские фильмы до 2016 ·· Вопреки здравому смыслу / Опровергая Евклида (Сайдо Курбанов) [2008, мелодрама, криминал, HDTVRip] Galfimbul 15615467521.45 GB 0 0 1496209420

08:43

31-Май-17

Российские фильмы до 2016 ·· Опровергая Евклида / Вопреки здравому смыслу (Сайдо Курбанов) [2008, мелодрама, криминал, DVDRip] Galfimbul 14684651521.37 GB 0 0 1475415305

16:35

2-Окт-16

Еще никто не оставлял запись к записи скачать торрент Вопреки здравому смыслу Опровергая Евклида . Будь первым!

!Обратная связь