Скачать через торрент Золотое сечение Сезон дождей Фильм бесплатно в хорошем качестве torrent

Скачивайте на UnionPeer.org фильмы через торрент без регистрации. Новинки кино в хорошем качестве через торрент. На UnionPeer.org можно скачать через торрент фильмы 2014 и 2015 годов. Самые новые фильмы.

Скачать торрент Золотое сечение Сезон дождей бесплатно через .torrent фильм мультфильм сериал

Если у вас наблюдаются проблемы со скриншотами, переходом по ссылками, скачиванием торрентов - проблемы в блокировщике рекламы AdBlock. #хорошегоДня!


Статистика раздачи
Размер:  6.53 GB   |    Зарегистрирован:  2 месяца 13 дней   |    .torrent скачан:  42 раза   |   
Раздают:  1  
   
Загрузка...
 
Автор Сообщение

Galfimbul

avatar Galfimbul


Золотое сечение / Сезон дождей

Страна: Россия
Студия: Студия документальных фильмов Санкт-Петербурга
Жанр: Приключения
Год выпуска: 2010
Продолжительность: 01:31:37

Перевод: Не требуется
Субтитры: нет
Оригинальная аудио дорожка: Русский

Режиссёр: Сергей Дебижев

В ролях: Алексей Серебряков, Ксения Раппопорт, Николай Мартон, Даниил Шигапов, Виктор Вержбицкий, Наталья Дюфрес, Сергей Бугаев, Георгий Просаловский, Алина Ван Ортон, Алла Михеева

Описание: Главный герой фильма случайно натыкается на старинную фотографию, на которой с немалым удивлением узнает своего деда. Фото сделано в 1948 году в колониальной Камбодже, а дед, как известно герою, погиб во время Второй мировой войны. Выяснение обстоятельств меняет жизнь героя в неожиданном направлении.

Доп. информация:
Автор релиза -
Источник аудио и видео - HDTV 1080i TS - моя запись с канала Наш Кинороман HD

Сэмпл: https://yadi.sk/i/dxuBPapW3KqUZp

Рекламы нет!

Качество видео: HDTV 1080i
Формат видео: TS

Видео: MPEG-4, 1920x1080 (16:9), 25.000 fps, 9064 kbps, 0.175 bit/pixel
Аудио 1: Русский MP2, 48000 Гц, 2ch, 192 kbps
Аудио 2: Русский AC3, 48000 Гц, 6ch, 448 kbps
ОбщееИдентификатор : 1 (0x1)Полное имя : D:\Золотое.Сечение.2010.HDTV.1080i-ylnian.tsФормат : MPEG-TSРазмер файла : 6,53 ГбайтПродолжительность : 1 ч. 31 м.Режим общего битрейта : ПеременныйОбщий поток : 10,2 Мбит/сек

ВидеоИдентификатор : 3551 (0xDDF)Идентификатор меню : 17015 (0x4277)Формат : AVCФормат/Информация : Advanced Video CodecПрофиль формата : Main@L4Параметр CABAC формата : ДаПараметр ReFrames формата : 4 кадраПараметр GOP формата : M=1, N=32Идентификатор кодека : 27Продолжительность : 1 ч. 31 м.Битрейт : 9064 Кбит/секШирина : 1920 пикселейВысота : 1080 пикселейСоотношение сторон : 16:9Частота кадров : 25,000 кадров/секЦветовое пространство : YUVСубдискретизация насыщенности : 4:2:0Битовая глубина : 8 битТип развёртки : ЧересстрочнаяМетод сохранения типа развёртки : Раздельные поляПорядок развёртки : Верхнее поле первоеБит/(Пиксели*Кадры) : 0.175Размер потока : 5,80 Гбайт (89%)Цветовой диапазон : LimitedОсновные цвета : BT.709Характеристики трансфера : BT.709Коэффициенты матрицы : BT.709

Аудио #1Идентификатор : 3552 (0xDE0)Идентификатор меню : 17015 (0x4277)Формат : MPEG AudioВерсия формата : Version 1Профиль формата : Layer 2Идентификатор кодека : 3Продолжительность : 1 ч. 31 м.Вид битрейта : ПостоянныйБитрейт : 192 Кбит/секКаналы : 2 каналаЧастота : 48,0 КГцМетод сжатия : С потерямиРазмер потока : 126 Мбайт (2%)Язык : Russian

Аудио #2Идентификатор : 3553 (0xDE1)Идентификатор меню : 17015 (0x4277)Формат : AC-3Формат/Информация : Audio Coding 3Параметр Endianness формата : BigИдентификатор кодека : 6Продолжительность : 1 ч. 31 м.Вид битрейта : ПостоянныйБитрейт : 448 Кбит/секКаналы : 6 каналовРасположение каналов : Front: L C R, Side: L R, LFEЧастота : 48,0 КГцЧастота кадров : 31,250 кадров/сек (1536 spf)Битовая глубина : 16 битМетод сжатия : С потерямиРазмер потока : 294 Мбайт (4%)Язык : RussianServiceKind/String : Complete Main


Трекер:  [ 11-Сен-2017 17:01 ]

  

Скачать .torrent

Размер .torrent файла 33 KB


Размер: 6.53 GB
Хэш (hash) релиза: f553766f6ef4894b799d3c2bdbe45ff82f76007a
Подписка на обновления:

Торренты, похожие на Золотое сечение Сезон дождей скачать торрент

Форум Название Автор Размер S L Добавлен
Российские фильмы до 2016 ·· Золотое сечение / Сезон дождей (Сергей Дебижев) [2010, Приключения, HDTVRip] Galfimbul 15624622081.46 GB 0 0 1496837257

15:07

7-Июн-17

Еще никто не оставлял запись к записи скачать торрент Золотое сечение Сезон дождей . Будь первым!

!Обратная связь