Скачать через торрент Одноклассницы: Новый поворот Фильм бесплатно в хорошем качестве torrent

Скачивайте на UnionPeer.org фильмы через торрент без регистрации. Новинки кино в хорошем качестве через торрент. На UnionPeer.org можно скачать через торрент фильмы 2014 и 2015 годов. Самые новые фильмы.

Скачать торрент Одноклассницы: Новый поворот бесплатно через .torrent фильм мультфильм сериал

Если у вас наблюдаются проблемы со скриншотами, переходом по ссылками, скачиванием торрентов - проблемы в блокировщике рекламы AdBlock. #хорошегоДня!


Статистика раздачи
Размер:  2.61 GB   |    Зарегистрирован:  2 месяца 13 дней   |    .torrent скачан:  33 раза   |   
Раздают:  2  
   
Загрузка...
 
Автор Сообщение

Galfimbul

avatar Galfimbul


Одноклассницы: Новый поворот

Страна: Россия
Жанр: комедия
Год выпуска: 2017
Продолжительность: 01:16:05
<div style="margin-left: 6em" class="post-ul">

</div>
Перевод: Не требуется
Субтитры: нет
Оригинальная аудиодорожка: русский
<div style="margin-left: 6em" class="post-ul">

</div>
Режиссер: Дмитрий Суворов
<div style="margin-left: 6em" class="post-ul">

</div>
В ролях: Светлана Ходченкова, Екатерина Вилкова, Ольга Кузьмина, Валентина Мазунина, Дмитрий Хрусталев, Илья Любимов, Арарат Кещян, Антон Макарский, Роман Юнусов, Данила Якушев

Описание: Спустя год после свадьбы Кати, обручальное кольцо спешит примерить Даша, нашедшая свою судьбу в лице банковского работника «короля кредитов» Миши.
Но как водится, гладко все не бывает. Смогут ли лучше подруги спасти свадьбу Даши?
<div style="margin-left: 6em" class="post-ul">

</div>
Релиз от:


Тип релиза: WEB-DL 1080p
Контейнер: MKV
<div style="margin-left: 6em" class="post-ul">

</div>
Видео: 1920x804 (2,40:1), 24 fps, MPEG-4 AVC, ~ 4438 kbps, 0.120 Bits/(Pixel*Frame)
<div style="margin-left: 6em" class="post-ul">

</div>
Аудио: Russian: 48 kHz, AC3, 3/2 (L,C,R,l,r) + LFE ch, ~384.00 kbps avg
Общее
Уникальный идентификатор : 211113965679655139222952371509228027040 (0x9ED312212233FFE4BE2BDE3A0E553CA0)
Полное имя : D:\Odnoklassnitsy.Noviy.povorot.WEB-DL.1080p.mkv
Формат : Matroska
Версия формата : Version 2
Размер файла : 2,61 Гбайт
Продолжительность : 1 ч. 16 м.
Общий поток : 4920 Кбит/сек
Название фильма : Odnoklassnitsy: Noviy povorot (2017) - Release for HDCLUB
Дата кодирования : UTC 2017-07-17 18:38:43
Программа кодирования : mkvmerge v3.4.0 ('Rapunzel') built on May 15 2010 09:38:20
Библиотека кодирования : libebml v0.8.0 + libmatroska v0.9.0

Видео
Идентификатор : 1
Формат : AVC
Формат/Информация : Advanced Video Codec
Профиль формата : High@L4
Параметр CABAC формата : Да
Параметр RefFrames формата : 5 кадров
Идентификатор кодека : V_MPEG4/ISO/AVC
Продолжительность : 1 ч. 16 м.
Битрейт : 4438 Кбит/сек
Ширина : 1920 пикселей
Высота : 804 пикселя
Соотношение сторон : 2,40:1
Режим частоты кадров : Постоянный
Частота кадров : 24,000 кадра/сек
Цветовое пространство : YUV
Субдискретизация насыщенности : 4:2:0
Битовая глубина : 8 бит
Тип развёртки : Прогрессивная
Бит/(Пиксели*Кадры) : 0.120
Размер потока : 2,36 Гбайт (90%)
Заголовок : Odnoklassnitsy: Noviy povorot (2017) - Release for HDCLUB
Язык : Russian
Default : Да
Forced : Нет
Цветовой диапазон : Limited
Основные цвета : BT.709
Характеристики трансфера : BT.709
Коэффициенты матрицы : BT.709

Аудио
Идентификатор : 2
Формат : AC-3
Формат/Информация : Audio Coding 3
Параметр Endianness формата : Big
Идентификатор кодека : A_AC3
Продолжительность : 1 ч. 16 м.
Вид битрейта : Постоянный
Битрейт : 384 Кбит/сек
Каналы : 6 каналов
Расположение каналов : Front: L C R, Side: L R, LFE
Частота : 48,0 КГц
Частота кадров : 31,250 кадров/сек (1536 SPF)
Битовая глубина : 16 бит
Метод сжатия : С потерями
Размер потока : 209 Мбайт (8%)
Заголовок : AC3 5.1 @ 384 kbps
Язык : Russian
ServiceKind/String : Complete Main
Default : Да
Forced : Нет

Меню
00:00:00.000 : en:1
00:09:00.791 : en:2
00:15:20.041 : en:3
00:21:23.332 : en:4
00:26:43.498 : en:5
00:32:35.664 : en:6
00:38:59.747 : en:7
00:43:50.622 : en:8
00:50:07.497 : en:9
00:55:04.247 : en:10
00:59:36.372 : en:11
01:05:46.872 : en:12
01:10:55.163 : en:13


Трекер:  [ 11-Сен-2017 17:01 ]

  

Скачать .torrent

Размер .torrent файла 13 KB


Размер: 2.61 GB
Хэш (hash) релиза: 9419823117df83f67b0b49e8716e6020ede74abf
Подписка на обновления:

Торренты, похожие на Одноклассницы: Новый поворот скачать торрент

Форум Название Автор Размер S L Добавлен
Российские фильмы 2016-2017 (Новинки русского кино) ·· Одноклассницы: Новый поворот (Дмитрий Суворов) [2017 г., комедия, WEB-DLRip] iTunes Galfimbul 14676029441.37 GB 0 0 1489752918

15:15

17-Мар-17

Российские фильмы 2016-2017 (Новинки русского кино) ·· Одноклассницы: Новый поворот (Дмитрий Суворов) [2017 г., комедия, WEB-DL 720р] iTunes Galfimbul 25311192462.36 GB 0 0 1489752912

15:15

17-Мар-17

Российские фильмы 2016-2017 (Новинки русского кино) ·· Одноклассницы: Новый поворот (Дмитрий Суворов) [2017 г., комедия, WEB-DL 1080р] iTunes Galfimbul 28077077692.61 GB 0 0 1489752902

15:15

17-Мар-17

Российские фильмы 2016-2017 (Новинки русского кино) ·· Одноклассницы: Новый поворот (Дмитрий Суворов) [2017 г., комедия, WEB-DLRip] Galfimbul 14671380481.37 GB 0 0 1489637489

07:11

16-Мар-17

Российские фильмы 2016-2017 (Новинки русского кино) ·· Одноклассницы: Новый поворот (Дмитрий Суворов) [2017 г., комедия, WEB-DL 1080р] Galfimbul 24329708272.27 GB 0 0 1489637483

07:11

16-Мар-17

Российские фильмы 2016-2017 (Новинки русского кино) ·· Одноклассницы: Новый поворот (Дмитрий Суворов) [2017 г., комедия, CAMRip] Galfimbul 14678446081.37 GB 0 0 1487932536

13:35

24-Фев-17

Еще никто не оставлял запись к записи скачать торрент Одноклассницы: Новый поворот . Будь первым!

!Обратная связь